Ergebnis 1 bis 1 von 1

Thema: Glass no Hana to Kowasu Sekai [Jap-Dub][Ger-Sub][1080p][WebRip] - K★S

Dieser Thread wurde noch nicht bewertet. Bewerte ihn doch, wenn er dir gefällt!
  1. #1
    Kami-sama Avatar von galudo
    Registriert seit
    Mar 2015
    Beiträge
    1.371
    Punkte
    26.024
    Errungenschaften:
    TomodachisTagger ProfiHyperaktivSenpaiGang Leader

    Glass no Hana to Kowasu Sekai [Jap-Dub][Ger-Sub][1080p][WebRip] - K★S

    Glass no Hana to Kowasu Sekai
    ガラスの花と壊す世界
    Garakowa -Restore the World-



    Kurzbeschreibung
    Die Box der Weisheit beinhaltet diverse Welten, Zeiträume und unterschiedliche Menschen. Es ist ein Raum ohne Schwerkraft mit einer schier unendlichen Menge an Lichtern in verschiedensten Farben. Hier kämpfen Dual und Dorothy gegen Viren, welche die Welten infizieren und es ist die Aufgabe der beiden Mädchen infizierte Welten auszulöschen. Eines Tages spüren Dual und Dorothy jedoch die Präsenz eines neuartigen Virus und retten beim Kampf gegen diesen ein mysteriöses Mädchen namens Rimo, welches nur zurück zu ihrem Blumenbeet möchte ...
    Format: MP4
    Sprache: Japanisch
    Untertitel: Deutsch
    Genre: Action, Drama, Magie, Science-Fiction
    Größe: ~ 1GB
    Dauer: ~ 66 Minuten
    Jahr: 2016
    Video: 1080p
    Source: Web
    Subgroup / Releasegroup: Kawaii Studios

    Hoster: Share-Online | Uploaded
    Passwort: siehe unten
    Onlinestatus:


    Datei-Info
    Spoiler
    Code:
    General
    Complete name                  : [Kawaii Studios] Glass no Hana to Kowasu Sekai [Ger Sub].mp4
    Format                         : MPEG-4
    Format profile                 : Base Media
    Codec ID                       : isom
    File size                      : 1 014 MiB
    Duration                       : 1h 6mn
    Overall bit rate mode          : Variable
    Overall bit rate               : 2 129 Kbps
    Encoded date                   : UTC 2016-03-27 06:28:40
    Tagged date                    : UTC 2016-03-27 06:28:40
    
    Video
    ID                             : 1
    Format                         : MPEG-4 Visual
    Format profile                 : Advanced [email protected]
    Format settings, BVOP          : Yes
    Format settings, QPel          : No
    Format settings, GMC           : No warppoints
    Format settings, Matrix        : Default (H.263)
    Codec ID                       : 20
    Duration                       : 1h 6mn
    Bit rate mode                  : Variable
    Bit rate                       : 1 999 Kbps
    Maximum bit rate               : 24.7 Mbps
    Width                          : 1 920 pixels
    Height                         : 1 080 pixels
    Display aspect ratio           : 16:9
    Frame rate mode                : Constant
    Frame rate                     : 23.976 fps
    Color space                    : YUV
    Chroma subsampling             : 4:2:0
    Bit depth                      : 8 bits
    Scan type                      : Progressive
    Compression mode               : Lossy
    Bits/(Pixel*Frame)             : 0.040
    Stream size                    : 952 MiB (94%)
    Writing library                : XviD 67
    Encoded date                   : UTC 2016-03-27 06:28:40
    Tagged date                    : UTC 2016-03-27 06:29:50
    
    Audio
    ID                             : 2
    Format                         : MPEG Audio
    Format version                 : Version 1
    Format profile                 : Layer 3
    Mode                           : Joint stereo
    Mode extension                 : MS Stereo
    Codec ID                       : .mp3
    Duration                       : 1h 6mn
    Bit rate mode                  : Constant
    Bit rate                       : 128 Kbps
    Maximum bit rate               : 132 Kbps
    Channel(s)                     : 2 channels
    Sampling rate                  : 48.0 KHz
    Compression mode               : Lossy
    Stream size                    : 61.0 MiB (6%)
    Writing library                : LAME3.99r
    Encoding settings              : -m j -V 4 -q 2 -lowpass 17 -b 128
    Encoded date                   : UTC 2016-03-27 06:29:39
    Tagged date                    : UTC 2016-03-27 06:29:50


    1 Part


    || Download & Passwort ||
    Geschützter Bereich - Bedanke dich beim Poster, um den Bereich sehen zu können
    Hier erfährst Du wie Du Dich bedanken kannst oder werde jetzt Premium Mitglied ab einer Spende von 5€ und erhalte sofortigen Zugriff auf den Downloadbereich!

    Geändert von galudo (21. April 2016 um 16:56 Uhr)
    SUPPORT UND REUP ANFRAGEN NUR >> [Links sind nur für registrierte und aktivierte Nutzer sichtbar. Klicke hier um dich zu registrieren.] <<
    Bitte IMMER den Thread-Link mitschicken.

  2. 3 Benutzer sagen Danke:

    johnny10 (17. August 2016),manninator (19. October 2016),Raziel (24. April 2016)

Lesezeichen

Berechtigungen

  • Neue Themen erstellen: Nein
  • Themen beantworten: Nein
  • Anhänge hochladen: Nein
  • Beiträge bearbeiten: Nein
  •  

1 2 3 4 5 6 7 8 9 10 11 12 13 14 15 16 17 18 19 20 21 22 23 24 25 26 27 28 29 30 31 32 33 34 35 36 37 38 39 40 41 42 43 44 45 46 47 48 49 50 51 52 53 54 55 56 57 58 59 60 61 62 63 64 65 66 67 68 69 70 71 72 73 74 75 76 77 78 79 80 81 82 83 84 85 86 87 88 89 90 91 92 93 94 95 96 97 98 99 100 101 102 103 104 105 106 107 108 109 110 111 112 113 114 115 116 117 118 119 120 121 122 123 124 125 126 127 128 129 130 131 132 133 134 135 136 137 138 139 140 141 142 143 144 145 146 147 148 149 150 151 152 153 154 155 156 157 158