Ergebnis 1 bis 1 von 1

Thema: Hal [Jap-Dub][Ger-Sub][720p/1080p-10Bit][BluRay]-C-Subs

Dieser Thread wurde noch nicht bewertet. Bewerte ihn doch, wenn er dir gefällt!
  1. #1
    United we Stand Avatar von 00Ryuji00
    Registriert seit
    Oct 2012
    Beiträge
    3.902
    Punkte
    99.938
    Errungenschaften:
    TomodachisGang LeaderHikikomoriTagger Amateur50000 Erfahrungspunkte

    Hal [Jap-Dub][Ger-Sub][720p/1080p-10Bit][BluRay]-C-Subs

    Hal
    ハル
    Haru






    Kurzbeschreibung:
    Das einst fröhliche Leben von Kurumi endete mit einem Flugzeugabsturz, bei dem ihr Freund Hal verstarb. Um ihre Lebensfreude wiederherzustellen, schenkt man ihr den Droiden Q01 ("Robo Hal"), der vom Aussehen her Hal gleicht und ihn in seinem Verhalten imitiert. Während des Zusammenlebens mit "Robo Hal", fängt Kurumi langsam wieder an zu vollem Verstand zurückzukehren. Wenn da nicht noch ein anderes großes Problem wäre...


    Sprache: Japanisch
    Untertitel: Deutsch
    Spieldauer: 1h 0min
    Format: .mp4
    Auflösung: 720p & 1080p 10-Bit (16:9)
    Codec: x264
    Group: C-Subs
    Hoster: Share-Online ; Uploaded


    Datei Info:

    Spoiler


    720p

    Code:
    
    
    Format                                   : MPEG-4
    Format profile                           : Base Media
    Codec ID                                 : isom
    File size                                : 1.13 GiB
    Duration                                 : 1h 0mn
    Overall bit rate mode                    : Variable
    Overall bit rate                         : 2 700 Kbps
    Encoded date                             : UTC 2014-04-24 18:57:20
    Tagged date                              : UTC 2014-04-24 18:57:20
    
    Video
    ID                                       : 1
    Format                                   : AVC
    Format/Info                              : Advanced Video Codec
    Format profile                           : [email protected]
    Format settings, CABAC                   : Yes
    Format settings, ReFrames                : 3 frames
    Codec ID                                 : avc1
    Codec ID/Info                            : Advanced Video Coding
    Duration                                 : 1h 0mn
    Bit rate mode                            : Variable
    Bit rate                                 : 2 252 Kbps
    Maximum bit rate                         : 40.0 Mbps
    Width                                    : 1 280 pixels
    Height                                   : 720 pixels
    Display aspect ratio                     : 16:9
    Frame rate mode                          : Constant
    Frame rate                               : 23.976 fps
    Color space                              : YUV
    Chroma subsampling                       : 4:2:0
    Bit depth                                : 8 bits
    Scan type                                : Progressive
    Bits/(Pixel*Frame)                       : 0.102
    Stream size                              : 968 MiB (83%)
    Writing library                          : x264 core 138 r2358 9e941d1
    Encoding settings                        : cabac=1 / ref=4 / deblock=1:0:0 / analyse=0x3:0x133 / me=umh / subme=10 / psy=1 / psy_rd=1.00:0.00 / mixed_ref=1 / me_range=24 / chroma_me=1 / trellis=2 / 8x8dct=1 / cqm=0 / deadzone=21,11 / fast_pskip=1 / chroma_qp_offset=-2 / threads=12 / lookahead_threads=1 / sliced_threads=0 / slices=4 / nr=0 / decimate=1 / interlaced=0 / bluray_compat=0 / constrained_intra=0 / bframes=3 / b_pyramid=1 / b_adapt=2 / b_bias=0 / direct=3 / weightb=1 / open_gop=0 / weightp=0 / keyint=23 / keyint_min=1 / scenecut=40 / intra_refresh=0 / rc_lookahead=23 / rc=crf / mbtree=1 / crf=18.0 / qcomp=0.60 / qpmin=10 / qpmax=51 / qpstep=4 / vbv_maxrate=40000 / vbv_bufsize=30000 / crf_max=0.0 / nal_hrd=vbr / ip_ratio=1.40 / aq=1:1.00
    Encoded date                             : UTC 2014-04-24 16:37:34
    Tagged date                              : UTC 2014-04-24 18:57:32
    
    Audio #1
    ID                                       : 2
    Format                                   : AAC
    Format/Info                              : Advanced Audio Codec
    Format profile                           : LC
    Codec ID                                 : 40
    Duration                                 : 1h 0mn
    Bit rate mode                            : Variable
    Bit rate                                 : 250 Kbps
    Maximum bit rate                         : 349 Kbps
    Channel count                            : 6 channels
    Channel positions                        : Front: L C R, Side: L R, LFE
    Sampling rate                            : 48.0 KHz
    Compression mode                         : Lossy
    Stream size                              : 107 MiB (9%)
    Title                                    : 5.1 Sound
    Language                                 : Japanese
    Encoded date                             : UTC 2014-01-04 17:24:19
    Tagged date                              : UTC 2014-04-24 18:57:32
    
    Audio #2
    ID                                       : 3
    Format                                   : AAC
    Format/Info                              : Advanced Audio Codec
    Format profile                           : LC
    Codec ID                                 : 40
    Duration                                 : 1h 0mn
    Bit rate mode                            : Variable
    Bit rate                                 : 192 Kbps
    Maximum bit rate                         : 239 Kbps
    Channel count                            : 2 channels
    Channel positions                        : Front: L R
    Sampling rate                            : 48.0 KHz
    Compression mode                         : Lossy
    Stream size                              : 82.1 MiB (7%)
    Title                                    : 2.0 Sound
    Language                                 : Japanese
    Encoded date                             : UTC 2014-01-04 12:22:27
    Tagged date                              : UTC 2014-04-24 18:57:32
    
    


    1080p 10-Bit

    Code:
    
    
    Format                                   : MPEG-4
    Format profile                           : Base Media
    Codec ID                                 : isom
    File size                                : 1.90 GiB
    Duration                                 : 1h 0mn
    Overall bit rate mode                    : Variable
    Overall bit rate                         : 4 532 Kbps
    Encoded date                             : UTC 2014-04-24 10:36:15
    Tagged date                              : UTC 2014-04-24 10:36:15
    
    Video
    ID                                       : 1
    Format                                   : AVC
    Format/Info                              : Advanced Video Codec
    Format profile                           : High [email protected]
    Format settings, CABAC                   : Yes
    Format settings, ReFrames                : 12 frames
    Codec ID                                 : avc1
    Codec ID/Info                            : Advanced Video Coding
    Duration                                 : 1h 0mn
    Bit rate                                 : 4 086 Kbps
    Maximum bit rate                         : 30.8 Mbps
    Width                                    : 1 920 pixels
    Height                                   : 1 080 pixels
    Display aspect ratio                     : 16:9
    Frame rate mode                          : Constant
    Frame rate                               : 23.976 fps
    Color space                              : YUV
    Chroma subsampling                       : 4:2:0
    Bit depth                                : 10 bits
    Scan type                                : Progressive
    Bits/(Pixel*Frame)                       : 0.082
    Stream size                              : 1.71 GiB (90%)
    Writing library                          : x264 core 130 r2273 b3065e6
    Encoding settings                        : cabac=1 / ref=12 / deblock=1:0:-1 / analyse=0x3:0x133 / me=umh / subme=10 / psy=1 / psy_rd=0.80:0.20 / mixed_ref=1 / me_range=24 / chroma_me=1 / trellis=2 / 8x8dct=1 / cqm=0 / deadzone=21,11 / fast_pskip=1 / chroma_qp_offset=-3 / threads=8 / lookahead_threads=2 / sliced_threads=0 / nr=0 / decimate=0 / interlaced=0 / bluray_compat=0 / constrained_intra=0 / bframes=16 / b_pyramid=2 / b_adapt=2 / b_bias=0 / direct=3 / weightb=1 / open_gop=0 / weightp=2 / keyint=240 / keyint_min=24 / scenecut=40 / intra_refresh=0 / rc_lookahead=80 / rc=crf / mbtree=1 / crf=15.0 / qcomp=0.60 / qpmin=0 / qpmax=81 / qpstep=4 / ip_ratio=1.40 / aq=2:0.90
    Encoded date                             : UTC 2014-04-23 16:07:47
    Tagged date                              : UTC 2014-04-24 10:37:01
    
    Audio #1
    ID                                       : 2
    Format                                   : AAC
    Format/Info                              : Advanced Audio Codec
    Format profile                           : LC
    Codec ID                                 : 40
    Duration                                 : 1h 0mn
    Bit rate mode                            : Variable
    Bit rate                                 : 250 Kbps
    Maximum bit rate                         : 349 Kbps
    Channel count                            : 6 channels
    Channel positions                        : Front: L C R, Side: L R, LFE
    Sampling rate                            : 48.0 KHz
    Compression mode                         : Lossy
    Stream size                              : 107 MiB (6%)
    Title                                    : 5.1 Sound
    Language                                 : Japanese
    Encoded date                             : UTC 2014-01-04 17:24:19
    Tagged date                              : UTC 2014-04-24 10:37:01
    
    Audio #2
    ID                                       : 3
    Format                                   : AAC
    Format/Info                              : Advanced Audio Codec
    Format profile                           : LC
    Codec ID                                 : 40
    Duration                                 : 1h 0mn
    Bit rate mode                            : Variable
    Bit rate                                 : 192 Kbps
    Maximum bit rate                         : 239 Kbps
    Channel count                            : 2 channels
    Channel positions                        : Front: L R
    Sampling rate                            : 48.0 KHz
    Compression mode                         : Lossy
    Stream size                              : 82.1 MiB (4%)
    Title                                    : 2.0 Sound
    Language                                 : Japanese
    Encoded date                             : UTC 2014-01-04 12:22:27
    Tagged date                              : UTC 2014-04-24 10:37:01
    
    









    Geschützter Bereich - Bedanke dich beim Poster, um den Bereich sehen zu können
    Hier erfährst Du wie Du Dich bedanken kannst oder werde jetzt Premium Mitglied ab einer Spende von 5€ und erhalte sofortigen Zugriff auf den Downloadbereich!

    Geändert von 00Ryuji00 (3. May 2016 um 15:10 Uhr)
    !!!Alle Anliegen bezüglich Uploads werden nur mit direktem Threadlink zum Angebot bearbeitet!!!

    Re-Uploadanfragen nur per PN - Ihr könnt mir auch Listen schicken

    Re-Uploads erfolgen meist innerhalb 24h, kann aber auch bis zu 7 Tage dauern

    [Links sind nur für registrierte und aktivierte Nutzer sichtbar. Klicke hier um dich zu registrieren.] | [Links sind nur für registrierte und aktivierte Nutzer sichtbar. Klicke hier um dich zu registrieren.] | >[Links sind nur für registrierte und aktivierte Nutzer sichtbar. Klicke hier um dich zu registrieren.]<
    [Links sind nur für registrierte und aktivierte Nutzer sichtbar. Klicke hier um dich zu registrieren.]

  2. 6 Benutzer sagen Danke:

    data_ghoul (7. September 2015),Ley0304 (30. September 2015),midnighter (5. August 2015),OLI10 (15. November 2015),prinzvegeta (2. January 2016),Shir0ku (3. August 2015)

Lesezeichen

Berechtigungen

  • Neue Themen erstellen: Nein
  • Themen beantworten: Nein
  • Anhänge hochladen: Nein
  • Beiträge bearbeiten: Nein
  •  

1 2 3 4 5 6 7 8 9 10 11 12 13 14 15 16 17 18 19 20 21 22 23 24 25 26 27 28 29 30 31 32 33 34 35 36 37 38 39 40 41 42 43 44 45 46 47 48 49 50 51 52 53 54 55 56 57 58 59 60 61 62 63 64 65 66 67 68 69 70 71 72 73 74 75 76 77 78 79 80 81 82 83 84 85 86 87 88 89 90 91 92 93 94 95 96 97 98 99 100 101 102 103 104 105 106 107 108 109 110 111 112 113 114 115 116 117 118 119 120 121 122 123 124 125 126 127 128 129 130 131 132 133 134 135 136 137 138 139 140 141 142 143 144 145 146 147 148 149 150 151 152 153 154 155 156 157 158