Ergebnis 1 bis 1 von 1

Thema: Kekkou Kamen [Jap-Dub][Ger-Sub][480p][DVDRip]-HRS

Dieser Thread wurde noch nicht bewertet. Bewerte ihn doch, wenn er dir gefällt!
  1. #1
    United we Stand Avatar von 00Ryuji00
    Registriert seit
    Oct 2012
    Beiträge
    3.899
    Punkte
    99.771
    Errungenschaften:
    TomodachisGang LeaderHikikomoriTagger Amateur50000 Erfahrungspunkte

    Kekkou Kamen [Jap-Dub][Ger-Sub][480p][DVDRip]-HRS


    Kekkou Kamen
    けっこう仮面
    Kekko Kamen
    Delicious Mask






    Kurzbeschreibung:
    Zitat Zitat von AniSearch.com
    Die Art des Unterrichtens ist in der Mimai Takashi Akademie sehr fragwürdig, denn in den Hallen hängen Monitore, welche mit Waffen bestückt sind, die Lehrer tragen Masken, um ihre Identität zu verbergen und es werden noch ein paar spezielle Unterrichtsstunden, die in der Folterkammer unterhalb der Turnhalle stattfinden, abgehalten. Ein Lehrplan, dessen Sinn einzig und allein dem Vernaschen der jungen Schülerinnen dient, Minami trifft ein sehr schweres Los, denn sie wurde auserkoren, die letzte zu werden, die aus ihrer Klasse vernascht wird. Gibt es für sie denn keine Hoffnung? Kann sie niemand vor diesem Schicksal bewahren? Kekki Kamen erscheint, um ihr zu helfen. Noch abstruser könnte eine Superheldin nicht sein, denn sie trägt lediglich eine rote Maske und rote Stiefel. Als Beschützerin der Unschuldigen sieht sie sich jedoch gezwungen, Minami zu retten. Lediglich bewaffnet mit einem Nunchaku und ihrem scharfen Körper, stellt sie sich ihren Feinden. Wer steckt aber wirklich hinter der Maske? Lediglich der Schöpfer Go Nagai kennt die Antwort, jedoch will er sie nicht preisgeben und bietet stattdessen den scharfen Körper von Neko Kamen zum bestaunen.


    Spieldauer: 45min
    Genre: Action
    Nebengenres: Action, Ecchi, Komödie, Magical Girl, Männlich, Volljährig, Übermäßige Gewaltdarstellung
    Jahr: 1991
    Sprache: Japanisch
    Untertitel: Deutsch
    Größe pro Folge: ~273 MiB
    Episodenanzahl: 4/4
    Format: MKV
    Auflösung: 480p (4:3)
    Videocodec: x264 (AVC)
    Audiocodec: Vorbis
    Releasegruppe: HRS
    Hoster: Share-Online, Uploaded


    MediaInfo
    Code:
    
    Format                                   : Matroska
    Format version                           : Version 4 / Version 2
    File size                                : 273 MiB
    Duration                                 : 21mn 9s
    Overall bit rate mode                    : Variable
    Overall bit rate                         : 1 807 Kbps
    Movie name                               : Kekko Kamen - 01 [RiP]
    Encoded date                             : UTC 2015-10-17 10:39:33
    Writing application                      : mkvmerge v7.7.0 ('Six Voices') 64bit built on Feb 28 2015 23:39:33
    Writing library                          : libebml v1.3.1 + libmatroska v1.4.2
    Attachements                             : tahoma.ttf / calibrib.ttf
    _STATISTICS_WRITING_APP                  : mkvmerge v7.7.0 ('Six Voices') 64bit built on Feb 28 2015 23:39:33
    _STATISTICS_WRITING_DATE_UTC             : 2015-10-17 10:39:33
    _STATISTICS_TAGS                         : BPS DURATION NUMBER_OF_FRAMES NUMBER_OF_BYTES
    DURATION                                 : 00:20:47.040000000
    NUMBER_OF_FRAMES                         : 233
    NUMBER_OF_BYTES                          : 13741
    
    Video
    ID                                       : 1
    Format                                   : AVC
    Format/Info                              : Advanced Video Codec
    Format profile                           : [email protected]
    Format settings, CABAC                   : Yes
    Format settings, ReFrames                : 16 frames
    Codec ID                                 : V_MPEG4/ISO/AVC
    Duration                                 : 21mn 9s
    Bit rate                                 : 1 643 Kbps
    Width                                    : 640 pixels
    Height                                   : 464 pixels
    Display aspect ratio                     : 1.379
    Frame rate mode                          : Constant
    Frame rate                               : 25.685 fps
    Original frame rate                      : 14.985 fps
    Color space                              : YUV
    Chroma subsampling                       : 4:2:0
    Bit depth                                : 8 bits
    Scan type                                : Progressive
    Bits/(Pixel*Frame)                       : 0.215
    Stream size                              : 249 MiB (91%)
    Title                                    : Kekko Kamen - 01 [RiP]
    Writing library                          : x264 core 40 svn-368M
    Language                                 : English
    Default                                  : Yes
    Forced                                   : No
    _STATISTICS_WRITING_APP                  : mkvmerge v7.7.0 ('Six Voices') 64bit built on Feb 28 2015 23:39:33
    _STATISTICS_WRITING_DATE_UTC             : 2015-10-17 10:39:33
    _STATISTICS_TAGS                         : BPS DURATION NUMBER_OF_FRAMES NUMBER_OF_BYTES
    DURATION                                 : 00:21:09.645000000
    NUMBER_OF_FRAMES                         : 33238
    NUMBER_OF_BYTES                          : 266663347
    
    Audio
    ID                                       : 2
    Format                                   : Vorbis
    Format settings, Floor                   : 1
    Codec ID                                 : A_VORBIS
    Duration                                 : 21mn 9s
    Bit rate mode                            : Variable
    Bit rate                                 : 128 Kbps
    Channel(s)                               : 2 channels
    Sampling rate                            : 48.0 KHz
    Compression mode                         : Lossy
    Stream size                              : 19.4 MiB (7%)
    Title                                    : Japanese Audio
    Writing application                      : Made with BeSweet v1.5b31
    Writing library                          : libVorbis 1.1.1/1.1.2 (UTC 2005-03-04)
    Language                                 : Japanese
    Default                                  : Yes
    Forced                                   : No
    Encoded_Application/Url                  : http://DSPguru.doom9.org
    
    Text
    ID                                       : 3
    Format                                   : ASS
    Codec ID                                 : S_TEXT/ASS
    Codec ID/Info                            : Advanced Sub Station Alpha
    Compression mode                         : Lossless
    Language                                 : German
    Default                                  : Yes
    Forced                                   : Yes
    
    Menu
    00:00:00.000                             : :Introduction
    00:08:15.300                             : :Main Part
    





    Geschützter Bereich - Bedanke dich beim Poster, um den Bereich sehen zu können
    Hier erfährst Du wie Du Dich bedanken kannst oder werde jetzt Premium Mitglied ab einer Spende von 5€ und erhalte sofortigen Zugriff auf den Downloadbereich!

    [Links sind nur für registrierte und aktivierte Nutzer sichtbar. Klicke hier um dich zu registrieren.]
    Geändert von 00Ryuji00 (3. May 2016 um 15:04 Uhr)
    !!!Alle Anliegen bezüglich Uploads werden nur mit direktem Threadlink zum Angebot bearbeitet!!!

    Re-Uploadanfragen nur per PN - Ihr könnt mir auch Listen schicken

    Re-Uploads erfolgen meist innerhalb 24h, kann aber auch bis zu 7 Tage dauern

    [Links sind nur für registrierte und aktivierte Nutzer sichtbar. Klicke hier um dich zu registrieren.] | [Links sind nur für registrierte und aktivierte Nutzer sichtbar. Klicke hier um dich zu registrieren.] | >[Links sind nur für registrierte und aktivierte Nutzer sichtbar. Klicke hier um dich zu registrieren.]<
    [Links sind nur für registrierte und aktivierte Nutzer sichtbar. Klicke hier um dich zu registrieren.]

  2. 19 Benutzer sagen Danke:

    Angel86 (28. December 2015),Antipott (6. March 2016),bloodyfloh (15. December 2015),fellmer (9. June 2016),heikobaer (16. December 2015),Hisamaki (16. December 2015),hunter4320 (20. December 2015),KeyEX99 (29. February 2016),kybant (15. March 2016),Latyr (17. December 2015),LoganKell (23. January 2016),manuel4193 (16. December 2015),midnighter (27. January 2016),old nick (15. December 2015),Piwi (15. December 2015),prinzvegeta (31. December 2015),samuuil (1. May 2016),Shadow7525 (1. January 2016),Ulfhednir (30. December 2015)

Lesezeichen

Berechtigungen

  • Neue Themen erstellen: Nein
  • Themen beantworten: Nein
  • Anhänge hochladen: Nein
  • Beiträge bearbeiten: Nein
  •  

1 2 3 4 5 6 7 8 9 10 11 12 13 14 15 16 17 18 19 20 21 22 23 24 25 26 27 28 29 30 31 32 33 34 35 36 37 38 39 40 41 42 43 44 45 46 47 48 49 50 51 52 53 54 55 56 57 58 59 60 61 62 63 64 65 66 67 68 69 70 71 72 73 74 75 76 77 78 79 80 81 82 83 84 85 86 87 88 89 90 91 92 93 94 95 96 97 98 99 100 101 102 103 104 105 106 107 108 109 110 111 112 113 114 115 116 117 118 119 120 121 122 123 124 125 126 127 128 129 130 131 132 133 134 135 136 137 138 139 140 141 142 143 144 145 146 147 148 149 150 151 152 153 154 155 156 157 158