Ergebnis 1 bis 1 von 1

Thema: Koukaku Kidoutai: Shin Gekijouban [Jap-Dub][Ger-Sub][720p][BluRay] - RoFL

Dieser Thread wurde noch nicht bewertet. Bewerte ihn doch, wenn er dir gefällt!
  1. #1
    Kami-sama Avatar von galudo
    Registriert seit
    Mar 2015
    Beiträge
    1.371
    Punkte
    26.064
    Errungenschaften:
    TomodachisTagger ProfiHyperaktivSenpaiGang Leader

    Koukaku Kidoutai: Shin Gekijouban [Jap-Dub][Ger-Sub][720p][BluRay] - RoFL

    Koukaku Kidoutai: Shin Gekijouban
    Ghost in the Shell New Movie (2015)
    Ghost in the Shell (2015)
    GitS (2015)



    Kurzbeschreibung
    Keine Beschreibung verfügbar
    Format: MP4
    Sprache: Japanisch
    Untertitel: Deutsch
    Genre: Action, Mecha, Science-Fiction
    Größe: ~ 2100 MB
    Dauer: ~ 100 Minuten
    Jahr: 2015
    Video: 720p
    Source: BluRay
    Subgroup / Releasegroup: Rorikon-Fansub-League

    Hoster: Share-Online | Uploaded
    Passwort: siehe unten
    Onlinestatus:


    Datei-Info
    Spoiler
    Code:
    General
    Complete name                  : [RoFL]_Ghost in the Shell - The New Movie [BD](x264 AAC gersub)[5EFA7C5F].mp4
    Format                         : MPEG-4
    Format profile                 : Base Media
    Codec ID                       : isom
    File size                      : 2.11 GiB
    Duration                       : 1h 39mn
    Overall bit rate mode          : Variable
    Overall bit rate               : 3 031 Kbps
    Encoded date                   : UTC 2016-04-01 18:16:23
    Tagged date                    : UTC 2016-04-01 18:16:23
    
    Video
    ID                             : 1
    Format                         : AVC
    Format/Info                    : Advanced Video Codec
    Format profile                 : [email protected]
    Format settings, CABAC         : Yes
    Format settings, ReFrames      : 3 frames
    Codec ID                       : avc1
    Codec ID/Info                  : Advanced Video Coding
    Duration                       : 1h 39mn
    Bit rate mode                  : Variable
    Bit rate                       : 2 608 Kbps
    Maximum bit rate               : 40.0 Mbps
    Width                          : 1 280 pixels
    Height                         : 720 pixels
    Display aspect ratio           : 16:9
    Frame rate mode                : Constant
    Frame rate                     : 23.976 fps
    Color space                    : YUV
    Chroma subsampling             : 4:2:0
    Bit depth                      : 8 bits
    Scan type                      : Progressive
    Bits/(Pixel*Frame)             : 0.118
    Stream size                    : 1.82 GiB (86%)
    Writing library                : x264 core 148 r2638 7599210
    Encoding settings              : cabac=1 / ref=4 / deblock=1:0:0 / analyse=0x3:0x113 / me=hex / subme=7 / psy=1 / psy_rd=1.00:0.00 / mixed_ref=1 / me_range=16 / chroma_me=1 / trellis=0 / 8x8dct=1 / cqm=0 / deadzone=21,11 / fast_pskip=1 / chroma_qp_offset=-2 / threads=9 / lookahead_threads=1 / sliced_threads=0 / slices=4 / nr=0 / decimate=1 / interlaced=0 / bluray_compat=0 / constrained_intra=0 / bframes=3 / b_pyramid=1 / b_adapt=1 / b_bias=0 / direct=1 / weightb=1 / open_gop=0 / weightp=2 / keyint=23 / keyint_min=1 / scenecut=40 / intra_refresh=0 / rc_lookahead=23 / rc=2pass / mbtree=1 / bitrate=2608 / ratetol=1.0 / qcomp=0.60 / qpmin=10 / qpmax=51 / qpstep=4 / cplxblur=20.0 / qblur=0.5 / vbv_maxrate=40000 / vbv_bufsize=30000 / nal_hrd=vbr / filler=0 / ip_ratio=1.40 / aq=1:1.00
    Encoded date                   : UTC 2016-04-01 18:16:23
    Tagged date                    : UTC 2016-04-01 18:17:06
    
    Audio
    ID                             : 2
    Format                         : AAC
    Format/Info                    : Advanced Audio Codec
    Format profile                 : LC
    Codec ID                       : 40
    Duration                       : 1h 39mn
    Bit rate mode                  : Variable
    Bit rate                       : 419 Kbps
    Maximum bit rate               : 552 Kbps
    Channel(s)                     : 6 channels
    Channel positions              : Front: L C R, Side: L R, LFE
    Sampling rate                  : 48.0 KHz
    Compression mode               : Lossy
    Stream size                    : 299 MiB (14%)
    Language                       : Japanese
    Encoded date                   : UTC 2015-11-01 06:57:29
    Tagged date                    : UTC 2016-04-01 18:17:06


    3 Parts


    || Download & Passwort ||
    Geschützter Bereich - Bedanke dich beim Poster, um den Bereich sehen zu können
    Hier erfährst Du wie Du Dich bedanken kannst oder werde jetzt Premium Mitglied ab einer Spende von 5€ und erhalte sofortigen Zugriff auf den Downloadbereich!

    Weiteres von Ghost in the Shell:
    [Links sind nur für registrierte und aktivierte Nutzer sichtbar. Klicke hier um dich zu registrieren.]
    [Links sind nur für registrierte und aktivierte Nutzer sichtbar. Klicke hier um dich zu registrieren.]
    Geändert von galudo (21. April 2016 um 16:56 Uhr)
    SUPPORT UND REUP ANFRAGEN NUR >> [Links sind nur für registrierte und aktivierte Nutzer sichtbar. Klicke hier um dich zu registrieren.] <<
    Bitte IMMER den Thread-Link mitschicken.

  2. 18 Benutzer sagen Danke:

    acer25 (9. April 2016),Arasuum (9. December 2016),Asuka Langley (9. April 2016),Bergmann89 (22. July 2016),CKSI (27. November 2016),ghost55 (11. April 2016),Hiruja (2. November 2016),Hisamaki (14. May 2016),Holzmodem (23. October 2016),Mr.Websta (8. September 2016),neron86 (4. June 2016),Physicaligraphy (24. November 2016),Scorns (14. November 2016),Shinon.Kagura (18. October 2016),Skinsuite (20. May 2016),Stoneman (13. July 2016),Vagabund (4. November 2016),zockerfreund (16. August 2016)

Stichworte

Lesezeichen

Berechtigungen

  • Neue Themen erstellen: Nein
  • Themen beantworten: Nein
  • Anhänge hochladen: Nein
  • Beiträge bearbeiten: Nein
  •  

1 2 3 4 5 6 7 8 9 10 11 12 13 14 15 16 17 18 19 20 21 22 23 24 25 26 27 28 29 30 31 32 33 34 35 36 37 38 39 40 41 42 43 44 45 46 47 48 49 50 51 52 53 54 55 56 57 58 59 60 61 62 63 64 65 66 67 68 69 70 71 72 73 74 75 76 77 78 79 80 81 82 83 84 85 86 87 88 89 90 91 92 93 94 95 96 97 98 99 100 101 102 103 104 105 106 107 108 109 110 111 112 113 114 115 116 117 118 119 120 121 122 123 124 125 126 127 128 129 130 131 132 133 134 135 136 137 138 139 140 141 142 143 144 145 146 147 148 149 150 151 152 153 154 155 156 157 158