Ergebnis 1 bis 1 von 1

Thema: Lupin III vs. Detective Conan 2013 [Jap-Dub][Ger-Sub][480p/720p][BluRay] - BnK

Dieser Thread wurde noch nicht bewertet. Bewerte ihn doch, wenn er dir gefällt!
  1. #1
    Kami-sama Avatar von galudo
    Registriert seit
    Mar 2015
    Beiträge
    1.369
    Punkte
    25.887
    Errungenschaften:
    TomodachisTagger ProfiHyperaktivSenpaiGang Leader

    Lupin III vs. Detective Conan 2013 [Jap-Dub][Ger-Sub][480p/720p][BluRay] - BnK

    Lupin Sansei vs. Meitantei Conan The Movie
    Lupin III VS Detective Conan: The Movie
    Lupin the 3rd vs. Detective Conan



    Kurzbeschreibung
    Lupin vs Conan, zum 2. Mal!

    Bereits 2009 kam es zu einem Zusammentreffen zwischen den beiden bekannten Figuren und dieser Film
    baut auch auf Ereignissen aus des ersten Filmes auf. Ein Aufeinandertreffen zweier Meister erwartet euch!
    Format: MP4
    Sprache: Japanisch
    Untertitel: Deutsch
    Genre: Krimi
    Größe: 1 GB bei 480p | 2,43 GB bei 720p
    Dauer: ~ 107 Minuten
    Jahr: 2013
    Video: 480p & 720p
    Source: BluRay
    Subgroup / Releasegroup: BnK-Subs

    Hoster: Share-Online | Uploaded
    Passwort: siehe unten


    Datei-Info
    Spoiler
    480p
    Code:
    General
    Complete name                  : [BnK] Lupin III vs. Detektiv Conan SD.mp4
    Format                         : MPEG-4
    Format profile                 : Base Media
    Codec ID                       : isom
    File size                      : 999 MiB
    Duration                       : 1h 47mn
    Overall bit rate mode          : Variable
    Overall bit rate               : 1 298 Kbps
    Encoded date                   : UTC 2014-07-14 18:53:10
    Tagged date                    : UTC 2014-07-14 18:53:10
    
    Video
    ID                             : 1
    Format                         : AVC
    Format/Info                    : Advanced Video Codec
    Format profile                 : [email protected]
    Format settings, CABAC         : Yes
    Format settings, ReFrames      : 4 frames
    Codec ID                       : avc1
    Codec ID/Info                  : Advanced Video Coding
    Duration                       : 1h 47mn
    Bit rate                       : 1 171 Kbps
    Maximum bit rate               : 9 862 Kbps
    Width                          : 848 pixels
    Height                         : 480 pixels
    Display aspect ratio           : 16:9
    Frame rate mode                : Constant
    Frame rate                     : 23.976 fps
    Color space                    : YUV
    Chroma subsampling             : 4:2:0
    Bit depth                      : 8 bits
    Scan type                      : Progressive
    Bits/(Pixel*Frame)             : 0.120
    Stream size                    : 901 MiB (90%)
    Writing library                : x264 core 125 r2208 d9d2288
    Encoding settings              : cabac=1 / ref=3 / deblock=1:0:0 / analyse=0x3:0x113 / me=hex / subme=7 / psy=1 / psy_rd=1.00:0.00 / mixed_ref=1 / me_range=16 / chroma_me=1 / trellis=1 / 8x8dct=1 / cqm=0 / deadzone=21,11 / fast_pskip=1 / chroma_qp_offset=-2 / threads=12 / lookahead_threads=2 / sliced_threads=0 / nr=0 / decimate=1 / interlaced=0 / bluray_compat=0 / constrained_intra=0 / bframes=3 / b_pyramid=2 / b_adapt=1 / b_bias=0 / direct=1 / weightb=1 / open_gop=0 / weightp=2 / keyint=250 / keyint_min=23 / scenecut=40 / intra_refresh=0 / rc_lookahead=40 / rc=2pass / mbtree=1 / bitrate=1171 / ratetol=1.0 / qcomp=0.60 / qpmin=0 / qpmax=69 / qpstep=4 / cplxblur=20.0 / qblur=0.5 / ip_ratio=1.40 / aq=1:1.00
    Encoded date                   : UTC 2014-07-14 18:53:10
    Tagged date                    : UTC 2014-07-14 18:53:18
    
    Audio
    ID                             : 2
    Format                         : MPEG Audio
    Format version                 : Version 1
    Format profile                 : Layer 3
    Codec ID                       : 6B
    Duration                       : 1h 47mn
    Bit rate mode                  : Variable
    Bit rate                       : 128 Kbps
    Maximum bit rate               : 175 Kbps
    Channel(s)                     : 2 channels
    Sampling rate                  : 48.0 KHz
    Compression mode               : Lossy
    Stream size                    : 94.7 MiB (9%)
    Writing library                : LAME3.99r
    Encoding settings              : -m s -V 4 -q 2 -lowpass 17 --abr 128
    Encoded date                   : UTC 2014-07-14 18:53:17
    Tagged date                    : UTC 2014-07-14 18:53:18

    720p
    Code:
    General
    Complete name                  : [BnK] Lupin III vs. Detektiv Conan HD.mp4
    Format                         : MPEG-4
    Format profile                 : Base Media
    Codec ID                       : isom
    File size                      : 2.43 GiB
    Duration                       : 1h 47mn
    Overall bit rate mode          : Variable
    Overall bit rate               : 3 240 Kbps
    Encoded date                   : UTC 2014-07-14 18:11:22
    Tagged date                    : UTC 2014-07-14 18:11:22
    
    Video
    ID                             : 1
    Format                         : AVC
    Format/Info                    : Advanced Video Codec
    Format profile                 : [email protected]
    Format settings, CABAC         : Yes
    Format settings, ReFrames      : 4 frames
    Codec ID                       : avc1
    Codec ID/Info                  : Advanced Video Coding
    Duration                       : 1h 47mn
    Bit rate                       : 3 112 Kbps
    Maximum bit rate               : 20.1 Mbps
    Width                          : 1 280 pixels
    Height                         : 720 pixels
    Display aspect ratio           : 16:9
    Frame rate mode                : Constant
    Frame rate                     : 23.976 fps
    Color space                    : YUV
    Chroma subsampling             : 4:2:0
    Bit depth                      : 8 bits
    Scan type                      : Progressive
    Bits/(Pixel*Frame)             : 0.141
    Stream size                    : 2.34 GiB (96%)
    Writing library                : x264 core 125 r2208 d9d2288
    Encoding settings              : cabac=1 / ref=3 / deblock=1:0:0 / analyse=0x3:0x113 / me=hex / subme=7 / psy=1 / psy_rd=1.00:0.00 / mixed_ref=1 / me_range=16 / chroma_me=1 / trellis=1 / 8x8dct=1 / cqm=0 / deadzone=21,11 / fast_pskip=1 / chroma_qp_offset=-2 / threads=12 / lookahead_threads=2 / sliced_threads=0 / nr=0 / decimate=1 / interlaced=0 / bluray_compat=0 / constrained_intra=0 / bframes=3 / b_pyramid=2 / b_adapt=1 / b_bias=0 / direct=1 / weightb=1 / open_gop=0 / weightp=2 / keyint=250 / keyint_min=23 / scenecut=40 / intra_refresh=0 / rc_lookahead=40 / rc=2pass / mbtree=1 / bitrate=3112 / ratetol=1.0 / qcomp=0.60 / qpmin=0 / qpmax=69 / qpstep=4 / cplxblur=20.0 / qblur=0.5 / ip_ratio=1.40 / aq=1:1.00
    Encoded date                   : UTC 2014-07-14 18:11:22
    Tagged date                    : UTC 2014-07-14 18:12:21
    
    Audio
    ID                             : 2
    Format                         : MPEG Audio
    Format version                 : Version 1
    Format profile                 : Layer 3
    Codec ID                       : 6B
    Duration                       : 1h 47mn
    Bit rate mode                  : Variable
    Bit rate                       : 128 Kbps
    Maximum bit rate               : 173 Kbps
    Channel(s)                     : 2 channels
    Sampling rate                  : 48.0 KHz
    Compression mode               : Lossy
    Stream size                    : 95.4 MiB (4%)
    Writing library                : LAME3.99r
    Encoding settings              : -m s -V 4 -q 2 -lowpass 17 --abr 128
    Encoded date                   : UTC 2014-07-14 18:12:18
    Tagged date                    : UTC 2014-07-14 18:12:21



    1 part bei 480p
    3 parts bei 720p



    || Download & Passwort ||
    Geschützter Bereich - Bedanke dich beim Poster, um den Bereich sehen zu können
    Hier erfährst Du wie Du Dich bedanken kannst oder werde jetzt Premium Mitglied ab einer Spende von 5€ und erhalte sofortigen Zugriff auf den Downloadbereich!

    Weiteres von Lupin/Detektiv Conan:
    [Links sind nur für registrierte und aktivierte Nutzer sichtbar. Klicke hier um dich zu registrieren.]
    [Links sind nur für registrierte und aktivierte Nutzer sichtbar. Klicke hier um dich zu registrieren.]
    [Links sind nur für registrierte und aktivierte Nutzer sichtbar. Klicke hier um dich zu registrieren.]

    Geändert von galudo (21. April 2016 um 17:25 Uhr)
    SUPPORT UND REUP ANFRAGEN NUR >> [Links sind nur für registrierte und aktivierte Nutzer sichtbar. Klicke hier um dich zu registrieren.] <<
    Bitte IMMER den Thread-Link mitschicken.

  2. 19 Benutzer sagen Danke:

    Alaric (5. November 2015),Antipott (6. March 2016),bemike (20. February 2016),Buschkilla (9. November 2015),DannyB (9. November 2015),DarkLimited (11. November 2015),dragonking87 (1. January 2016),egon1212 (29. November 2015),Guest7778 (31. March 2016),hijuga (12. June 2016),Hisamaki (1. November 2015),hunterhunter (28. January 2016),manuel4193 (30. October 2015),midnighter (1. November 2015),Morslord (7. November 2015),Mr.Shit (2. November 2015),nemo (6. December 2015),Porco (3. November 2015),volker027 (29. December 2015)

Lesezeichen

Berechtigungen

  • Neue Themen erstellen: Nein
  • Themen beantworten: Nein
  • Anhänge hochladen: Nein
  • Beiträge bearbeiten: Nein
  •  

1 2 3 4 5 6 7 8 9 10 11 12 13 14 15 16 17 18 19 20 21 22 23 24 25 26 27 28 29 30 31 32 33 34 35 36 37 38 39 40 41 42 43 44 45 46 47 48 49 50 51 52 53 54 55 56 57 58 59 60 61 62 63 64 65 66 67 68 69 70 71 72 73 74 75 76 77 78 79 80 81 82 83 84 85 86 87 88 89 90 91 92 93 94 95 96 97 98 99 100 101 102 103 104 105 106 107 108 109 110 111 112 113 114 115 116 117 118 119 120 121 122 123 124 125 126 127 128 129 130 131 132 133 134 135 136 137 138 139 140 141 142 143 144 145 146 147 148 149 150 151 152 153 154 155 156 157 158