Ergebnis 1 bis 2 von 2

Thema: Mahou Shoujo Lyrical Nanoha The Movie 1st [Jap-Dub][Ger-Sub][720p/1080p-10Bit][BluRay]-Morai

Dieser Thread wurde noch nicht bewertet. Bewerte ihn doch, wenn er dir gefällt!
  1. #1
    United we Stand Avatar von 00Ryuji00
    Registriert seit
    Oct 2012
    Beiträge
    3.902
    Punkte
    99.938
    Errungenschaften:
    TomodachisGang LeaderHikikomoriTagger Amateur50000 Erfahrungspunkte

    Mahou Shoujo Lyrical Nanoha The Movie 1st [Jap-Dub][Ger-Sub][720p/1080p-10Bit][BluRay]-Morai


    Mahou Shoujo Lyrical Nanoha The Movie 1st
    魔法少女リリカルなのは The Movie 1st
    Magical Girl Lyrical Nanoha The Movie 1st






    Kurzbeschreibung:
    Zitat Zitat von AniSearch.com
    Nanoha Takamachi ist eigentlich ein ganz normales Mädchen, das in die dritte Klasse der Grundschule geht. Ihr Leben ändert sich jedoch schlagartig, als sie eines Nachts dem sprechenden Frettchen Yuuno Scrya zu Hilfe kommt, um für ihn nach den 21 Jewel Seeds zu suchen. Doch schon bald tritt eine Gegenspielerin von Nanoha ins Rampenlicht, die ihr gemeinsam mit ihrer Vertrauten Arf die Jewel Seeds streitig machen will. Ihr Name: Fate Testarossa. Ein hitziger Kampf entbrennt zwischen den beiden jungen Magierinnen, an dessen Ende das Schicksal der ganzen Welt auf dem Spiel zu stehen scheint. Es handelt sich hierbei um eine Zusammenfassung der ersten Staffel Mahou Shoujo Lyrical Nanoha, wobei vornehmlich alle Szenen neu aufgearbeitet wurden und nur die grundlegende Geschichte beibehalten wurde.


    Spieldauer: 120min
    Genre: Action
    Nebengenres: Action, Drama, Komödie, Magical Girl, Männlich
    Jahr: 2010
    Sprache: Japanisch
    Untertitel: Deutsch
    Größe pro Folge: ~2.86 GiB ~3.73 GiB
    Episodenanzahl: 1/1
    Format: MP4
    Auflösung: 720p (16:9), 1072p (16:9)
    Videocodec: x264 (AVC)
    Audiocodec: AAC
    Releasegruppe: Morai-Subs
    Hoster: Share-Online, Uploaded


    MediaInfo
    720p
    Code:
    
    Format                                   : MPEG-4
    Format profile                           : Base Media
    Codec ID                                 : isom
    File size                                : 2.86 GiB
    Duration                                 : 2h 10mn
    Overall bit rate mode                    : Variable
    Overall bit rate                         : 3 142 Kbps
    Encoded date                             : UTC 2012-06-03 11:50:00
    Tagged date                              : UTC 2012-06-03 11:50:00
    Writing application                      : Yamb 2.1.0.0 [http://yamb.unite-video.com]
    
    Video
    ID                                       : 2
    Format                                   : AVC
    Format/Info                              : Advanced Video Codec
    Format profile                           : [email protected]
    Format settings, CABAC                   : Yes
    Format settings, ReFrames                : 9 frames
    Codec ID                                 : avc1
    Codec ID/Info                            : Advanced Video Coding
    Duration                                 : 2h 10mn
    Bit rate                                 : 2 469 Kbps
    Maximum bit rate                         : 12.6 Mbps
    Width                                    : 1 280 pixels
    Height                                   : 720 pixels
    Display aspect ratio                     : 16:9
    Frame rate mode                          : Constant
    Frame rate                               : 23.976 fps
    Color space                              : YUV
    Chroma subsampling                       : 4:2:0
    Bit depth                                : 8 bits
    Scan type                                : Progressive
    Bits/(Pixel*Frame)                       : 0.112
    Stream size                              : 2.25 GiB (79%)
    Title                                    : Video
    Writing library                          : x264 core 122 r2184 5c85e0a
    Encoding settings                        : cabac=1 / ref=9 / deblock=1:1:1 / analyse=0x3:0x133 / me=umh / subme=10 / psy=1 / psy_rd=0.60:0.15 / mixed_ref=1 / me_range=24 / chroma_me=1 / trellis=2 / 8x8dct=1 / cqm=0 / deadzone=21,11 / fast_pskip=1 / chroma_qp_offset=-3 / threads=9 / sliced_threads=0 / nr=0 / decimate=1 / interlaced=0 / bluray_compat=0 / constrained_intra=0 / bframes=9 / b_pyramid=2 / b_adapt=2 / b_bias=0 / direct=3 / weightb=1 / open_gop=0 / weightp=2 / keyint=250 / keyint_min=23 / scenecut=40 / intra_refresh=0 / rc_lookahead=60 / rc=crf / mbtree=0 / crf=18.0 / qcomp=0.60 / qpmin=0 / qpmax=69 / qpstep=4 / vbv_maxrate=25000 / vbv_bufsize=25000 / crf_max=0.0 / nal_hrd=none / ip_ratio=1.40 / pb_ratio=1.30 / aq=2:1.30
    Encoded date                             : UTC 2012-06-03 07:49:07
    Tagged date                              : UTC 2012-06-03 11:52:26
    
    Audio
    ID                                       : 1
    Format                                   : AAC
    Format/Info                              : Advanced Audio Codec
    Format profile                           : LC
    Codec ID                                 : 40
    Duration                                 : 2h 10mn
    Bit rate mode                            : Variable
    Bit rate                                 : 662 Kbps
    Maximum bit rate                         : 868 Kbps
    Channel(s)                               : 2 channels
    Channel(s)_Original                      : 6 channels
    Channel positions                        : Front: L C R, Side: L R, LFE
    Sampling rate                            : 48.0 KHz
    Compression mode                         : Lossy
    Stream size                              : 623 MiB (21%)
    Encoded date                             : UTC 2012-06-03 11:50:00
    Tagged date                              : UTC 2012-06-03 11:52:26
    
    


    1080p
    Code:
    
    Format                                   : MPEG-4
    Format profile                           : Base Media
    Codec ID                                 : isom
    File size                                : 3.73 GiB
    Duration                                 : 2h 10mn
    Overall bit rate mode                    : Variable
    Overall bit rate                         : 4 099 Kbps
    Encoded date                             : UTC 2012-06-03 11:54:22
    Tagged date                              : UTC 2012-06-03 11:54:22
    
    Video
    ID                                       : 1
    Format                                   : AVC
    Format/Info                              : Advanced Video Codec
    Format profile                           : High [email protected]
    Format settings, CABAC                   : Yes
    Format settings, ReFrames                : 14 frames
    Codec ID                                 : avc1
    Codec ID/Info                            : Advanced Video Coding
    Duration                                 : 2h 10mn
    Bit rate                                 : 3 426 Kbps
    Maximum bit rate                         : 22.0 Mbps
    Width                                    : 1 912 pixels
    Height                                   : 1 072 pixels
    Display aspect ratio                     : 16:9
    Frame rate mode                          : Constant
    Frame rate                               : 23.976 fps
    Color space                              : YUV
    Chroma subsampling                       : 4:2:0
    Bit depth                                : 10 bits
    Scan type                                : Progressive
    Bits/(Pixel*Frame)                       : 0.070
    Stream size                              : 3.12 GiB (84%)
    Title                                    : Video
    Writing library                          : x264 core 122 r2184 5c85e0a
    Encoding settings                        : cabac=1 / ref=14 / deblock=1:1:1 / analyse=0x3:0x133 / me=umh / subme=10 / psy=1 / psy_rd=0.70:0.10 / mixed_ref=1 / me_range=24 / chroma_me=1 / trellis=2 / 8x8dct=1 / cqm=0 / deadzone=21,11 / fast_pskip=1 / chroma_qp_offset=-3 / threads=9 / sliced_threads=0 / nr=0 / decimate=1 / interlaced=0 / bluray_compat=0 / constrained_intra=0 / bframes=16 / b_pyramid=2 / b_adapt=2 / b_bias=0 / direct=3 / weightb=1 / open_gop=0 / weightp=2 / keyint=250 / keyint_min=23 / scenecut=40 / intra_refresh=0 / rc_lookahead=80 / rc=crf / mbtree=1 / crf=18.0 / qcomp=0.60 / qpmin=0 / qpmax=81 / qpstep=4 / ip_ratio=1.40 / aq=2:1.30
    Encoded date                             : UTC 2012-06-04 06:31:26
    Tagged date                              : UTC 2012-06-03 11:59:28
    
    Audio
    ID                                       : 2
    Format                                   : AAC
    Format/Info                              : Advanced Audio Codec
    Format profile                           : LC
    Codec ID                                 : 40
    Duration                                 : 2h 10mn
    Bit rate mode                            : Variable
    Bit rate                                 : 662 Kbps
    Maximum bit rate                         : 868 Kbps
    Channel(s)                               : 2 channels
    Channel(s)_Original                      : 6 channels
    Channel positions                        : Front: L C R, Side: L R, LFE
    Sampling rate                            : 48.0 KHz
    Compression mode                         : Lossy
    Stream size                              : 623 MiB (16%)
    Encoded date                             : UTC 2012-06-03 11:59:24
    Tagged date                              : UTC 2012-06-03 11:59:28
    
    







    Geschützter Bereich - Bedanke dich beim Poster, um den Bereich sehen zu können
    Hier erfährst Du wie Du Dich bedanken kannst oder werde jetzt Premium Mitglied ab einer Spende von 5€ und erhalte sofortigen Zugriff auf den Downloadbereich!


    [Links sind nur für registrierte und aktivierte Nutzer sichtbar. Klicke hier um dich zu registrieren.]
    Geändert von 00Ryuji00 (29. April 2016 um 22:30 Uhr)
    !!!Alle Anliegen bezüglich Uploads werden nur mit direktem Threadlink zum Angebot bearbeitet!!!

    Re-Uploadanfragen nur per PN - Ihr könnt mir auch Listen schicken

    Re-Uploads erfolgen meist innerhalb 24h, kann aber auch bis zu 7 Tage dauern

    [Links sind nur für registrierte und aktivierte Nutzer sichtbar. Klicke hier um dich zu registrieren.] | [Links sind nur für registrierte und aktivierte Nutzer sichtbar. Klicke hier um dich zu registrieren.] | >[Links sind nur für registrierte und aktivierte Nutzer sichtbar. Klicke hier um dich zu registrieren.]<
    [Links sind nur für registrierte und aktivierte Nutzer sichtbar. Klicke hier um dich zu registrieren.]

  2. 12 Benutzer sagen Danke:

    Antipott (6. March 2016),bohne (11. March 2016),Hotaru (5. March 2016),LawrenceKraft (13. January 2016),midnighter (1. February 2016),old nick (28. February 2016),Ronae (8. January 2016),Sonicslash (21. March 2016),tigerhai (25. April 2016),Tzi (8. January 2016),Wor Mac (5. February 2016),YamiXGhost (31. January 2016)

  3. #2
    United we Stand Avatar von 00Ryuji00
    Registriert seit
    Oct 2012
    Beiträge
    3.902
    Punkte
    99.938
    Errungenschaften:
    TomodachisGang LeaderHikikomoriTagger Amateur50000 Erfahrungspunkte

    AW: Mahou Shoujo Lyrical Nanoha The Movie 1st [Jap-Dub][Ger-Sub][720p/1080p-10Bit][BluRay]-Morai

    Update: Dateien auf Wunsch wieder online.
    !!!Alle Anliegen bezüglich Uploads werden nur mit direktem Threadlink zum Angebot bearbeitet!!!

    Re-Uploadanfragen nur per PN - Ihr könnt mir auch Listen schicken

    Re-Uploads erfolgen meist innerhalb 24h, kann aber auch bis zu 7 Tage dauern

    [Links sind nur für registrierte und aktivierte Nutzer sichtbar. Klicke hier um dich zu registrieren.] | [Links sind nur für registrierte und aktivierte Nutzer sichtbar. Klicke hier um dich zu registrieren.] | >[Links sind nur für registrierte und aktivierte Nutzer sichtbar. Klicke hier um dich zu registrieren.]<
    [Links sind nur für registrierte und aktivierte Nutzer sichtbar. Klicke hier um dich zu registrieren.]

  4. 1 Benutzer sagt Danke:

    Sora (7. June 2016)

Lesezeichen

Berechtigungen

  • Neue Themen erstellen: Nein
  • Themen beantworten: Nein
  • Anhänge hochladen: Nein
  • Beiträge bearbeiten: Nein
  •  

1 2 3 4 5 6 7 8 9 10 11 12 13 14 15 16 17 18 19 20 21 22 23 24 25 26 27 28 29 30 31 32 33 34 35 36 37 38 39 40 41 42 43 44 45 46 47 48 49 50 51 52 53 54 55 56 57 58 59 60 61 62 63 64 65 66 67 68 69 70 71 72 73 74 75 76 77 78 79 80 81 82 83 84 85 86 87 88 89 90 91 92 93 94 95 96 97 98 99 100 101 102 103 104 105 106 107 108 109 110 111 112 113 114 115 116 117 118 119 120 121 122 123 124 125 126 127 128 129 130 131 132 133 134 135 136 137 138 139 140 141 142 143 144 145 146 147 148 149 150 151 152 153 154 155 156 157 158