Ergebnis 1 bis 1 von 1

Thema: Shingeki no Kyojin Movie 1: Guren no Yumiya [Jap-Dub][Ger-Sub][HDTV][720p]

Dieser Thread wurde noch nicht bewertet. Bewerte ihn doch, wenn er dir gefällt!
  1. #1
    Kami-sama Avatar von galudo
    Registriert seit
    Mar 2015
    Beiträge
    1.370
    Punkte
    25.957
    Errungenschaften:
    TomodachisTagger ProfiHyperaktivSenpaiGang Leader

    Shingeki no Kyojin Movie 1: Guren no Yumiya [Jap-Dub][Ger-Sub][HDTV][720p]

    Shingeki no Kyojin Movie 1: Guren no Yumiya
    Gekijouban Shingeki no Kyojin Movie
    Attack on Titan: Crimson Bow and Arrow
    Attack on Titan Movie, AoT Movie, SnK Movie




    Kurzbeschreibung
    Dieser Film ist ein Zusammenschnitt der ersten 13 Folgen von Attack on Titan/Shingeki no Kyojin.
    Mehrere hundert Jahre zuvor wurde die Menschheit beinahe von Giganten ausgerottet. Sie sind riesengroß, verfügen über wenig Intelligenz und scheinen Menschen nur des Vergnügens wegen zu fressen. Ein kleiner Prozentsatz an Menschen überlebte, indem sie sich in einer Stadt verschanzten, deren gewaltige Mauern größer sind als die größten Giganten.

    Die Stadt hat seit über 100 Jahren keinen Titanen mehr gesehen. Der junge Teenager Eren und seine Ziehschwester Mikasa müssen mit ansehen, wie ein "Supertitan" wie aus dem Nichts vor der Stadt erscheint und die Mauern zerstört. Während kleinere Titanen durch die Löcher in die Stadt einfallen, müssen die Kinder den Horror miterleben, wie ihre Mutter bei lebendigem Leibe aufgefressen wird. Eren schwört, dass er jeden einzelnen Titanen auf der Welt abschlachten und Rache für die ganze Menschheit nehmen wird.
    Format: MP4
    Sprache: Japanisch
    Untertitel: Deutsch
    Größe: ca. 1,03 GB
    Dauer: 118 Minuten
    Jahr: 2015
    Video: 720p
    Source: HDTV
    Releasegroup: Pure-Ani.me

    Hoster: Share-Online | Uploaded
    Passwort: siehe unten


    Datei-Info
    Spoiler
    Code:
    General
    Format                         : MPEG-4
    Format profile                 : Base Media
    Codec ID                       : isom
    File size                      : 1.04 GiB
    Duration                       : 1h 58mn
    Overall bit rate mode          : Variable
    Overall bit rate               : 1 252 Kbps
    
    Video
    ID                             : 1
    Format                         : AVC
    Format/Info                    : Advanced Video Codec
    Format profile                 : [email protected]
    Format settings, CABAC         : Yes
    Format settings, ReFrames      : 4 frames
    Codec ID                       : avc1
    Codec ID/Info                  : Advanced Video Coding
    Duration                       : 1h 58mn
    Bit rate                       : 811 Kbps
    Maximum bit rate               : 4 595 Kbps
    Width                          : 1 280 pixels
    Height                         : 720 pixels
    Display aspect ratio           : 16:9
    Frame rate mode                : Constant
    Frame rate                     : 23.976 fps
    Color space                    : YUV
    Chroma subsampling             : 4:2:0
    Bit depth                      : 8 bits
    Scan type                      : Progressive
    Bits/(Pixel*Frame)             : 0.037
    Stream size                    : 688 MiB (65%)
    Writing library                : x264 core 146 r2538 121396c
    Encoding settings              : cabac=1 / ref=1 / deblock=1:0:0 / analyse=0x3:0x3 / me=dia / subme=1 / psy=1 / psy_rd=1.00:0.00 / mixed_ref=0 / me_range=16 / chroma_me=1 / trellis=0 / 8x8dct=1 / cqm=0 / deadzone=21,11 / fast_pskip=1 / chroma_qp_offset=0 / threads=12 / lookahead_threads=2 / sliced_threads=0 / nr=0 / decimate=1 / interlaced=0 / bluray_compat=0 / constrained_intra=0 / bframes=3 / b_pyramid=2 / b_adapt=1 / b_bias=0 / direct=1 / weightb=1 / open_gop=0 / weightp=1 / keyint=240 / keyint_min=23 / scenecut=40 / intra_refresh=0 / rc=2pass / mbtree=0 / bitrate=811 / ratetol=1.0 / qcomp=0.60 / qpmin=0 / qpmax=69 / qpstep=4 / cplxblur=20.0 / qblur=0.5 / ip_ratio=1.40 / pb_ratio=1.30 / aq=1:1.00
    
    Audio
    ID                             : 2
    Format                         : AAC
    Format/Info                    : Advanced Audio Codec
    Format profile                 : LC
    Codec ID                       : 40
    Duration                       : 1h 58mn
    Bit rate mode                  : Variable
    Bit rate                       : 437 Kbps
    Maximum bit rate               : 512 Kbps
    Channel(s)                     : 6 channels
    Channel positions              : Front: L C R, Side: L R, LFE
    Sampling rate                  : 48.0 KHz
    Compression mode               : Lossy
    Stream size                    : 371 MiB (35%)


    Unterteilt in 2 Parts


    || Download & Passwort ||
    Geschützter Bereich - Bedanke dich beim Poster, um den Bereich sehen zu können
    Hier erfährst Du wie Du Dich bedanken kannst oder werde jetzt Premium Mitglied ab einer Spende von 5€ und erhalte sofortigen Zugriff auf den Downloadbereich!
    Geändert von galudo (21. April 2016 um 18:28 Uhr)
    SUPPORT UND REUP ANFRAGEN NUR >> [Links sind nur für registrierte und aktivierte Nutzer sichtbar. Klicke hier um dich zu registrieren.] <<
    Bitte IMMER den Thread-Link mitschicken.

  2. 69 Benutzer sagen Danke:

    Anzeigen

    ANg3el (6. July 2015),archonize (27. June 2015),Asura (25. April 2015),BlackPhoenix (30. June 2015),Buttercups (6. December 2015),Darkmasta (7. May 2015),DarthToast (14. May 2015),Deadman_01 (26. April 2015),dionys (6. July 2015),Draagul (11. April 2015),Drezzo (20. July 2015),drparnassus (12. April 2015),eraz (12. April 2015),farmerjoe (12. April 2015),FIRST--LAW--FANTASY (27. October 2015),folgar (16. December 2015),Frag0042 (26. July 2015),FreshMagma (12. July 2015),Geisterhaendler (1. October 2015),hanfii (3. May 2015),hausl (23. April 2015),Hisamaki (13. April 2015),HoOoLy_ShiiiT (15. April 2015),imnuan (21. October 2015),InSaNe.CodeZ (12. April 2015),jhabsdakhvsdjva (2. May 2015),kaitokid187 (14. April 2015),Kradus (4. November 2015),krasserGaul (11. April 2015),Kuruno (12. February 2016),LawrenceKraft (26. April 2015),LordBacon1 (12. April 2015),macis2013 (19. April 2015),Melijal (19. April 2015),midnighter (21. April 2015),Moody (26. July 2015),NeefBenriya (18. June 2016),neocx (11. April 2015),npmusiQ (7. May 2015),passi (22. June 2015),Patorikku-kun (29. April 2015),paulito.1 (23. July 2016),Quetzal Coatl (19. July 2015),ribery_1980 (8. February 2016),Robin88 (8. July 2016),Sanubo (25. August 2015),Saphir (28. April 2015),SenseiSasone (18. June 2015),SerienStream (23. July 2015),Shinosenshi (30. April 2015),Smasher25 (13. October 2015),SONNYxq (1. July 2015),Soranix06 (25. January 2016),Sou-chan (28. April 2015),Subzero (18. April 2015),Suigetsu (22. June 2015),TaigaAisaka (17. April 2016),Tenma90 (14. June 2015),TheYoAsakura (13. April 2015),thulas (13. July 2015),TingelN (4. August 2015),Tschu23 (12. April 2015),Vastolord (5. May 2015),Verdemis (16. April 2015),Wölfchen (11. April 2015),xorphenx (12. April 2015),Yishar (24. March 2016),yuudai (13. April 2015),ZeDeRom (14. April 2015)

Stichworte

Lesezeichen

Berechtigungen

  • Neue Themen erstellen: Nein
  • Themen beantworten: Nein
  • Anhänge hochladen: Nein
  • Beiträge bearbeiten: Nein
  •  

1 2 3 4 5 6 7 8 9 10 11 12 13 14 15 16 17 18 19 20 21 22 23 24 25 26 27 28 29 30 31 32 33 34 35 36 37 38 39 40 41 42 43 44 45 46 47 48 49 50 51 52 53 54 55 56 57 58 59 60 61 62 63 64 65 66 67 68 69 70 71 72 73 74 75 76 77 78 79 80 81 82 83 84 85 86 87 88 89 90 91 92 93 94 95 96 97 98 99 100 101 102 103 104 105 106 107 108 109 110 111 112 113 114 115 116 117 118 119 120 121 122 123 124 125 126 127 128 129 130 131 132 133 134 135 136 137 138 139 140 141 142 143 144 145 146 147 148 149 150 151 152 153 154 155 156 157 158