Ergebnis 1 bis 1 von 1

Thema: Sukeban Deka [Jap-Dub][Ger-Sub][480p][DVDRip]-HRS

Dieser Thread wurde noch nicht bewertet. Bewerte ihn doch, wenn er dir gefällt!
  1. #1
    United we Stand Avatar von 00Ryuji00
    Registriert seit
    Oct 2012
    Beiträge
    3.902
    Punkte
    100.092
    Errungenschaften:
    TomodachisGang LeaderHikikomoriTagger Amateur50000 Erfahrungspunkte

    Sukeban Deka [Jap-Dub][Ger-Sub][480p][DVDRip]-HRS


    Sukeban Deka
    スケバン刑事[スケバン・デカ]
    Delinquent Detective






    Kurzbeschreibung:
    Zitat Zitat von AniSearch.com
    Nachdem die strafanfällige Saki Asamiya einige Zeit in einer Erziehungsanstalt verbracht hat, bekommt sie die Chance ihr bisheriges kriminelles Dasein wieder gut zu machen. Sie arbeitet als Undercover-Polizistin, um so das etwaige Todesurteil ihrer Mutter herauszuzögern. Nur mit einem speziellen Jo-Jo bewaffnet, ist es Sakis Aufgabe, die mysteriösen Todesfälle unter den Studenten in ihrer Highschool aufzuklären. Um den Fall untersuchen zu können, muss sie den reichen und mächtigen Mizuchi-Schwestern gegenübertreten, die nach ihrem Verweis von der Schule, erneut die Oberhand erlangt haben.


    Spieldauer: 50min
    Genre: Krimi
    Nebengenres: Action, Drama, Komödie, Krimi, Männlich, Übermäßige Gewaltdarstellung
    Jahr: 1991
    Sprache: Japanisch
    Untertitel: Deutsch
    Größe pro Folge: ~782 MiB
    Episodenanzahl: 2/2
    Format: MKV
    Auflösung: 478p (4:3)
    Videocodec: x264 (AVC)
    Audiocodec: AC-3
    Releasegruppe: HRS
    Hoster: Share-Online, Uploaded


    MediaInfo
    Code:
    
    Format                                   : Matroska
    Format version                           : Version 4 / Version 2
    File size                                : 782 MiB
    Duration                                 : 48mn 40s
    Overall bit rate                         : 2 246 Kbps
    Movie name                               : Sukeban Deka (1991) [OnDeed]
    Encoded date                             : UTC 2015-03-11 09:52:56
    Writing application                      : mkvmerge v7.5.0 ('Glass Culture') 64bit built on Jan  4 2015 16:48:44
    Writing library                          : libebml v1.3.1 + libmatroska v1.4.2
    Attachements                             : LiberationSans-Regular.ttf / Rowdyhe_.ttf / Wonton.ttf / GillSansStd.otf
    DURATION                                 : 00:48:17.600000000
    NUMBER_OF_FRAMES                         : 544
    NUMBER_OF_BYTES                          : 35742
    _STATISTICS_WRITING_APP                  : mkvmerge v7.5.0 ('Glass Culture') 64bit built on Jan  4 2015 16:48:44
    _STATISTICS_WRITING_DATE_UTC             : 2015-03-11 09:52:56
    _STATISTICS_TAGS                         : BPS DURATION NUMBER_OF_FRAMES NUMBER_OF_BYTES
    
    Video
    ID                                       : 1
    Format                                   : AVC
    Format/Info                              : Advanced Video Codec
    Format profile                           : [email protected]
    Format settings, CABAC                   : Yes
    Format settings, ReFrames                : 16 frames
    Codec ID                                 : V_MPEG4/ISO/AVC
    Duration                                 : 48mn 40s
    Bit rate                                 : 2 009 Kbps
    Width                                    : 704 pixels
    Height                                   : 478 pixels
    Display aspect ratio                     : 4:3
    Original display aspect ratio            : 4:3
    Frame rate mode                          : Constant
    Frame rate                               : 23.976 fps
    Color space                              : YUV
    Chroma subsampling                       : 4:2:0
    Bit depth                                : 8 bits
    Scan type                                : Progressive
    Bits/(Pixel*Frame)                       : 0.249
    Stream size                              : 699 MiB (89%)
    Title                                    : Chapter 1: Birth (R2J DVD)
    Writing library                          : x264 core 116 r2074 2641b9e
    Encoding settings                        : cabac=1 / ref=16 / deblock=1:0:0 / analyse=0x3:0x133 / me=umh / subme=11 / psy=1 / psy_rd=1.00:0.00 / mixed_ref=1 / me_range=24 / chroma_me=1 / trellis=2 / 8x8dct=1 / cqm=0 / deadzone=21,11 / fast_pskip=0 / chroma_qp_offset=-2 / threads=1 / sliced_threads=0 / nr=0 / decimate=1 / interlaced=0 / bluray_compat=0 / constrained_intra=0 / bframes=8 / b_pyramid=2 / b_adapt=2 / b_bias=0 / direct=1 / weightb=1 / open_gop=0 / weightp=2 / keyint=400 / keyint_min=5 / scenecut=40 / intra_refresh=0 / rc=crf / mbtree=0 / crf=15.5 / qcomp=0.60 / qpmin=0 / qpmax=23 / qpstep=4 / ip_ratio=1.40 / pb_ratio=1.30 / aq=1:0.80
    Language                                 : Japanese
    Default                                  : Yes
    Forced                                   : No
    Color range                              : Limited
    Matrix coefficients                      : BT.601
    
    Audio
    ID                                       : 2
    Format                                   : AC-3
    Format/Info                              : Audio Coding 3
    Mode extension                           : CM (complete main)
    Format settings, Endianness              : Big
    Codec ID                                 : A_AC3
    Duration                                 : 48mn 40s
    Bit rate mode                            : Constant
    Bit rate                                 : 192 Kbps
    Channel(s)                               : 2 channels
    Channel positions                        : Front: L R
    Sampling rate                            : 48.0 KHz
    Compression mode                         : Lossy
    Stream size                              : 66.8 MiB (9%)
    Title                                    : Japanese Audio (stereo)
    Language                                 : Japanese
    Default                                  : Yes
    Forced                                   : Yes
    
    Text
    ID                                       : 3
    Format                                   : ASS
    Codec ID                                 : S_TEXT/ASS
    Codec ID/Info                            : Advanced Sub Station Alpha
    Compression mode                         : Lossless
    Title                                    : [Shiseijuu-Subs]
    Language                                 : German
    Default                                  : Yes
    Forced                                   : Yes
    
    





    Geschützter Bereich - Bedanke dich beim Poster, um den Bereich sehen zu können
    Hier erfährst Du wie Du Dich bedanken kannst oder werde jetzt Premium Mitglied ab einer Spende von 5€ und erhalte sofortigen Zugriff auf den Downloadbereich!

    [Links sind nur für registrierte und aktivierte Nutzer sichtbar. Klicke hier um dich zu registrieren.]
    Geändert von 00Ryuji00 (30. April 2016 um 17:09 Uhr)
    !!!Alle Anliegen bezüglich Uploads werden nur mit direktem Threadlink zum Angebot bearbeitet!!!

    Re-Uploadanfragen nur per PN - Ihr könnt mir auch Listen schicken

    Re-Uploads folgen nach Anfrage meist am Wochenende

    [Links sind nur für registrierte und aktivierte Nutzer sichtbar. Klicke hier um dich zu registrieren.] | [Links sind nur für registrierte und aktivierte Nutzer sichtbar. Klicke hier um dich zu registrieren.] | >[Links sind nur für registrierte und aktivierte Nutzer sichtbar. Klicke hier um dich zu registrieren.]<
    [Links sind nur für registrierte und aktivierte Nutzer sichtbar. Klicke hier um dich zu registrieren.]

  2. 2 Benutzer sagen Danke:

    midnighter (30. January 2016),prinzvegeta (31. December 2015)

Lesezeichen

Berechtigungen

  • Neue Themen erstellen: Nein
  • Themen beantworten: Nein
  • Anhänge hochladen: Nein
  • Beiträge bearbeiten: Nein
  •  

1 2 3 4 5 6 7 8 9 10 11 12 13 14 15 16 17 18 19 20 21 22 23 24 25 26 27 28 29 30 31 32 33 34 35 36 37 38 39 40 41 42 43 44 45 46 47 48 49 50 51 52 53 54 55 56 57 58 59 60 61 62 63 64 65 66 67 68 69 70 71 72 73 74 75 76 77 78 79 80 81 82 83 84 85 86 87 88 89 90 91 92 93 94 95 96 97 98 99 100 101 102 103 104 105 106 107 108 109 110 111 112 113 114 115 116 117 118 119 120 121 122 123 124 125 126 127 128 129 130 131 132 133 134 135 136 137 138 139 140 141 142 143 144 145 146 147 148 149 150 151 152 153 154 155 156 157 158