Ergebnis 1 bis 1 von 1

Thema: Watashi no Coffee Samurai: Jihanki Teki na Kareshi [Jap-Dub][Ger-Sub][480p][DVDRip]

Dieser Thread wurde noch nicht bewertet. Bewerte ihn doch, wenn er dir gefällt!
  1. #1
    United we Stand Avatar von 00Ryuji00
    Registriert seit
    Oct 2012
    Beiträge
    3.897
    Punkte
    99.135
    Errungenschaften:
    TomodachisGang LeaderHikikomoriTagger Amateur50000 Erfahrungspunkte

    Watashi no Coffee Samurai: Jihanki Teki na Kareshi [Jap-Dub][Ger-Sub][480p][DVDRip]


    Watashi no Coffee Samurai: Jihanki Teki na Kareshi
    わたしのコーヒー・サムライ
    My Coffee Samurai: My Boyfriend is a Vending Machine






    Kurzbeschreibung:
    Zitat Zitat von AniSearch.com
    Er war einst ein begnadeter Schwertkämpfer, doch auch er musste erfahren, dass es immer einen Stärkeren gibt. Wiedergeboren als Kaffeeautomat folgt er weiter seiner Bestimmung als Kämpfer. Als er eines Tages auf ein Mädchen trifft, die in ihm den Menschen entdeckt, wachsen ihre Herzen von Tag zu Tag näher zusammen. Wird er sich für ein Leben als ewiger Kämpfer oder für ein Leben an der Seite des Mädchens entscheiden?


    Spieldauer: 30min
    Genre: Action
    Nebengenres: Action, Familie, Komödie, Romanze, Sci-Fi
    Jahr: 2009
    Sprache: Japanisch
    Untertitel: Deutsch
    Größe pro Folge:
    Episodenanzahl: 1/1
    Format: mp4
    Auflösung: 480p (16:9)
    Videocodec: x264 (AVC)
    Releasegruppe: C-Subs
    Hoster: Share-Online, Uploaded


    MediaInfo
    Code:
    
    Format                                   : MPEG-4
    Format profile                           : Base Media
    Codec ID                                 : isom
    File size                                : 326 MiB
    Duration                                 : 29mn 53s
    Overall bit rate mode                    : Variable
    Overall bit rate                         : 1 525 Kbps
    Encoded date                             : UTC 2012-04-26 09:33:23
    Tagged date                              : UTC 2012-04-26 09:33:23
    
    Video
    ID                                       : 1
    Format                                   : AVC
    Format/Info                              : Advanced Video Codec
    Format profile                           : [email protected]
    Format settings, CABAC                   : Yes
    Format settings, ReFrames                : 4 frames
    Codec ID                                 : avc1
    Codec ID/Info                            : Advanced Video Coding
    Duration                                 : 29mn 53s
    Source duration                          : 1mn 15s
    Bit rate                                 : 1 266 Kbps
    Maximum bit rate                         : 5 603 Kbps
    Width                                    : 848 pixels
    Height                                   : 480 pixels
    Display aspect ratio                     : 16:9
    Frame rate mode                          : Constant
    Frame rate                               : 23.976 fps
    Color space                              : YUV
    Chroma subsampling                       : 4:2:0
    Bit depth                                : 8 bits
    Scan type                                : Progressive
    Bits/(Pixel*Frame)                       : 0.130
    Stream size                              : 271 MiB (83%)
    Source stream size                       : 271 MiB (83%)
    Writing library                          : x264 core 120 r2164 da19765
    Encoding settings                        : cabac=1 / ref=3 / deblock=1:0:0 / analyse=0x3:0x133 / me=umh / subme=6 / psy=1 / psy_rd=1.00:0.00 / mixed_ref=1 / me_range=16 / chroma_me=1 / trellis=2 / 8x8dct=1 / cqm=0 / deadzone=21,11 / fast_pskip=1 / chroma_qp_offset=-2 / threads=12 / sliced_threads=0 / nr=0 / decimate=1 / interlaced=0 / bluray_compat=0 / constrained_intra=0 / bframes=3 / b_pyramid=2 / b_adapt=1 / b_bias=0 / direct=3 / weightb=1 / open_gop=0 / weightp=2 / keyint=240 / keyint_min=23 / scenecut=40 / intra_refresh=0 / rc=crf / mbtree=0 / crf=20.0 / qcomp=0.60 / qpmin=10 / qpmax=51 / qpstep=4 / ip_ratio=1.40 / pb_ratio=1.30 / aq=0
    Encoded date                             : UTC 2012-04-26 09:06:34
    Tagged date                              : UTC 2012-04-26 09:33:24
    mdhd_Duration                            : 1793666
    
    Audio
    ID                                       : 2
    Format                                   : AAC
    Format/Info                              : Advanced Audio Codec
    Format profile                           : LC
    Codec ID                                 : 40
    Duration                                 : 29mn 53s
    Bit rate mode                            : Variable
    Bit rate                                 : 255 Kbps
    Maximum bit rate                         : 320 Kbps
    Channel count                            : 2 channels
    Channel positions                        : Front: L R
    Sampling rate                            : 48.0 KHz
    Compression mode                         : Lossy
    Stream size                              : 54.6 MiB (17%)
    Encoded date                             : UTC 2012-04-26 09:33:23
    Tagged date                              : UTC 2012-04-26 09:33:24
    
    





    Geschützter Bereich - Bedanke dich beim Poster, um den Bereich sehen zu können
    Hier erfährst Du wie Du Dich bedanken kannst oder werde jetzt Premium Mitglied ab einer Spende von 5€ und erhalte sofortigen Zugriff auf den Downloadbereich!

    Geändert von 00Ryuji00 (3. May 2016 um 15:07 Uhr)
    !!!Alle Anliegen bezüglich Uploads werden nur mit direktem Threadlink zum Angebot bearbeitet!!!

    Re-Uploadanfragen nur per PN - Ihr könnt mir auch Listen schicken

    Re-Uploads erfolgen meist innerhalb 24h, kann aber auch bis zu 7 Tage dauern

    [Links sind nur für registrierte und aktivierte Nutzer sichtbar. Klicke hier um dich zu registrieren.] | [Links sind nur für registrierte und aktivierte Nutzer sichtbar. Klicke hier um dich zu registrieren.] | >[Links sind nur für registrierte und aktivierte Nutzer sichtbar. Klicke hier um dich zu registrieren.]<
    [Links sind nur für registrierte und aktivierte Nutzer sichtbar. Klicke hier um dich zu registrieren.]

  2. 5 Benutzer sagen Danke:

    Akio (20. February 2016),koax123 (3. September 2015),midnighter (18. August 2015),prinzvegeta (2. January 2016),Tzi (11. August 2015)

Lesezeichen

Berechtigungen

  • Neue Themen erstellen: Nein
  • Themen beantworten: Nein
  • Anhänge hochladen: Nein
  • Beiträge bearbeiten: Nein
  •  

1 2 3 4 5 6 7 8 9 10 11 12 13 14 15 16 17 18 19 20 21 22 23 24 25 26 27 28 29 30 31 32 33 34 35 36 37 38 39 40 41 42 43 44 45 46 47 48 49 50 51 52 53 54 55 56 57 58 59 60 61 62 63 64 65 66 67 68 69 70 71 72 73 74 75 76 77 78 79 80 81 82 83 84 85 86 87 88 89 90 91 92 93 94 95 96 97 98 99 100 101 102 103 104 105 106 107 108 109 110 111 112 113 114 115 116 117 118 119 120 121 122 123 124 125 126 127 128 129 130 131 132 133 134 135 136 137 138 139 140 141 142 143 144 145 146 147 148 149 150 151 152 153 154 155 156 157 158