Ergebnis 1 bis 1 von 1

Thema: Yu-Gi-Oh! 3D: Bonds Beyond Time [JapDub][GerSub][720p&1080p][BluRay]

Dieser Thread wurde noch nicht bewertet. Bewerte ihn doch, wenn er dir gefällt!
  1. #1
    Kami-sama Avatar von galudo
    Registriert seit
    Mar 2015
    Beiträge
    1.369
    Punkte
    25.903
    Errungenschaften:
    TomodachisTagger ProfiHyperaktivSenpaiGang Leader

    Yu-Gi-Oh! 3D: Bonds Beyond Time [JapDub][GerSub][720p&1080p][BluRay]

    Gekijouban Yuu Gi Ou: Chou Yuugou! Toki o Koeta Kizuna
    劇場版 遊☆戯☆王 ~超融合! 時空を越えた絆~
    Yu-Gi-Oh! 3D: Bonds Beyond Time



    Kurzbeschreibung
    Nachdem Yusei Fudous Sternenstaubdrache von Paradox, einem mysteriösen Duellanten aus der Zukunft, gestohlen wurde, verfolgt er diesen in der Zeit zurück und trifft dort auf Jaden Yuki, welcher gerade von Paradox angegriffen wird. Daraufhin reist Paradox noch einmal in der Zeit zurück, um sein eigentliches Ziel zu erreichen und Pegasus zu töten. Um dies zu verhindern, folgen ihm die beiden Duellanten und treffen in Domino City auf Yugi Muto. Gemeinsam wollen sie nun Paradox aufhalten.
    Format: MP4 bei 720p-Version, 1080p ist MKV
    Sprache: Japanisch
    Untertitel: Deutsch
    Größe: 720p-Version = 548MB, 1080p-Version = 1,19GB
    Dauer: ~ 49 Minuten
    Jahr: 2010
    Video: 720p & 1080p
    Source: BluRay
    Subgroup / Releasegroup: Shiroi Fansubs
    Hoster: Share-Online| Uploaded
    Passwort: siehe unten


    Datei-Info
    Spoiler

    720p
    Code:
    General
    Format                         : MPEG-4
    Format profile                 : Base Media
    Codec ID                       : isom
    File size                      : 548 MiB
    Duration                       : 49mn 42s
    Overall bit rate mode          : Variable
    Overall bit rate               : 1 542 Kbps
    
    Video
    ID                             : 1
    Format                         : AVC
    Format/Info                    : Advanced Video Codec
    Format profile                 : [email protected]
    Format settings, CABAC         : Yes
    Format settings, ReFrames      : 3 frames
    Format settings, GOP           : N=1
    Codec ID                       : avc1
    Codec ID/Info                  : Advanced Video Coding
    Duration                       : 49mn 42s
    Bit rate                       : 1 342 Kbps
    Maximum bit rate               : 8 564 Kbps
    Width                          : 1 280 pixels
    Height                         : 720 pixels
    Display aspect ratio           : 16:9
    Frame rate mode                : Constant
    Frame rate                     : 23.976 fps
    Color space                    : YUV
    Chroma subsampling             : 4:2:0
    Bit depth                      : 8 bits
    Scan type                      : Progressive
    Bits/(Pixel*Frame)             : 0.061
    Stream size                    : 477 MiB (87%)
    Writing library                : x264 core 116 r2074 2641b9e
    Encoding settings              : cabac=1 / ref=3 / deblock=1:0:0 / analyse=0x3:0x113 / me=hex / subme=7 / psy=1 / psy_rd=1.00:0.00 / mixed_ref=1 / me_range=16 / chroma_me=1 / trellis=1 / 8x8dct=1 / cqm=0 / deadzone=21,11 / fast_pskip=1 / chroma_qp_offset=-2 / threads=12 / sliced_threads=0 / nr=0 / decimate=1 / interlaced=0 / bluray_compat=0 / constrained_intra=0 / bframes=0 / weightp=2 / keyint=250 / keyint_min=23 / scenecut=40 / intra_refresh=0 / rc_lookahead=40 / rc=2pass / mbtree=1 / bitrate=1342 / ratetol=1.0 / qcomp=0.60 / qpmin=0 / qpmax=69 / qpstep=4 / cplxblur=20.0 / qblur=0.5 / ip_ratio=1.40 / aq=1:1.00
    
    Audio
    ID                             : 2
    Format                         : AAC
    Format/Info                    : Advanced Audio Codec
    Format profile                 : LC
    Codec ID                       : 40
    Duration                       : 49mn 42s
    Bit rate mode                  : Variable
    Bit rate                       : 197 Kbps
    Maximum bit rate               : 258 Kbps
    Channel(s)                     : 2 channels
    Channel(s)_Original            : 6 channels
    Channel positions              : Front: L C R, Side: L R, LFE
    Sampling rate                  : 48.0 KHz
    Compression mode               : Lossy
    Stream size                    : 70.2 MiB (13%)

    1080p
    Code:
    General
    Format                         : Matroska
    Format version                 : Version 2
    File size                      : 1.19 GiB
    Duration                       : 49mn 42s
    Overall bit rate               : 3 441 Kbps
    Encoded date                   : UTC 2011-12-24 12:52:56
    Writing application            : mkvmerge v4.9.1 ('Ich will') built on Jul 11 2011 23:53:15
    Writing library                : libebml v1.2.1 + libmatroska v1.1.1
    
    Video
    ID                             : 1
    Format                         : AVC
    Format/Info                    : Advanced Video Codec
    Format profile                 : High [email protected]
    Format settings, CABAC         : Yes
    Format settings, ReFrames      : 3 frames
    Codec ID                       : V_MPEG4/ISO/AVC
    Duration                       : 49mn 42s
    Nominal bit rate               : 3 242 Kbps
    Width                          : 1 920 pixels
    Height                         : 1 080 pixels
    Display aspect ratio           : 16:9
    Frame rate mode                : Constant
    Frame rate                     : 23.976 fps
    Color space                    : YUV
    Chroma subsampling             : 4:2:0
    Bit depth                      : 10 bits
    Scan type                      : Progressive
    Bits/(Pixel*Frame)             : 0.065
    Writing library                : x264 core 119 r2106 07efeb4
    Encoding settings              : cabac=1 / ref=3 / deblock=1:0:0 / analyse=0x3:0x113 / me=hex / subme=7 / psy=1 / psy_rd=1.00:0.00 / mixed_ref=1 / me_range=16 / chroma_me=1 / trellis=1 / 8x8dct=1 / cqm=0 / deadzone=21,11 / fast_pskip=1 / chroma_qp_offset=-2 / threads=12 / sliced_threads=0 / nr=0 / decimate=1 / interlaced=0 / bluray_compat=0 / constrained_intra=0 / bframes=0 / weightp=2 / keyint=250 / keyint_min=23 / scenecut=40 / intra_refresh=0 / rc_lookahead=40 / rc=2pass / mbtree=1 / bitrate=3242 / ratetol=1.0 / qcomp=0.60 / qpmin=0 / qpmax=81 / qpstep=4 / cplxblur=20.0 / qblur=0.5 / ip_ratio=1.40 / aq=1:1.00
    Language                       : English
    Default                        : Yes
    Forced                         : No
    
    Audio
    ID                             : 2
    Format                         : AAC
    Format/Info                    : Advanced Audio Codec
    Format profile                 : HE-AAC / LC
    Codec ID                       : A_AAC
    Duration                       : 49mn 42s
    Channel(s)                     : 6 channels
    Channel positions              : Front: L C R, Side: L R, LFE
    Sampling rate                  : 96.0 KHz / 48.0 KHz
    Compression mode               : Lossy
    Default                        : Yes
    Forced                         : No



    1 Part bei der 720p-Version
    2 Parts bei der 1080p-Version


    || Download & Passwort ||
    Geschützter Bereich - Bedanke dich beim Poster, um den Bereich sehen zu können
    Hier erfährst Du wie Du Dich bedanken kannst oder werde jetzt Premium Mitglied ab einer Spende von 5€ und erhalte sofortigen Zugriff auf den Downloadbereich!
    Geändert von galudo (21. April 2016 um 18:24 Uhr) Grund: Reupload
    SUPPORT UND REUP ANFRAGEN NUR >> [Links sind nur für registrierte und aktivierte Nutzer sichtbar. Klicke hier um dich zu registrieren.] <<
    Bitte IMMER den Thread-Link mitschicken.

  2. 25 Benutzer sagen Danke:

    BK-201 (17. June 2015),Bullet91 (11. September 2015),Cooky1988 (16. May 2015),Deadman_01 (15. June 2015),drparnassus (15. May 2015),EmreWest (24. October 2015),Feindsender (14. May 2015),FrankyxD (16. August 2015),fullmetal1995 (21. April 2016),helloplaya (22. June 2015),Kartox (15. June 2015),Kurzey (5. September 2015),manuel4193 (15. May 2015),McZeRo (23. February 2016),Meatron (17. May 2015),Miles360 (14. May 2015),Paulus (24. June 2015),rice4ever (11. April 2016),samuuil (1. May 2016),Schweigi (21. June 2015),Shadowa (16. May 2015),sportfreak tim (30. March 2016),SunburstHD (26. December 2015),Tschu23 (15. May 2015),VatosLocos (30. August 2015)

Stichworte

Lesezeichen

Berechtigungen

  • Neue Themen erstellen: Nein
  • Themen beantworten: Nein
  • Anhänge hochladen: Nein
  • Beiträge bearbeiten: Nein
  •  

1 2 3 4 5 6 7 8 9 10 11 12 13 14 15 16 17 18 19 20 21 22 23 24 25 26 27 28 29 30 31 32 33 34 35 36 37 38 39 40 41 42 43 44 45 46 47 48 49 50 51 52 53 54 55 56 57 58 59 60 61 62 63 64 65 66 67 68 69 70 71 72 73 74 75 76 77 78 79 80 81 82 83 84 85 86 87 88 89 90 91 92 93 94 95 96 97 98 99 100 101 102 103 104 105 106 107 108 109 110 111 112 113 114 115 116 117 118 119 120 121 122 123 124 125 126 127 128 129 130 131 132 133 134 135 136 137 138 139 140 141 142 143 144 145 146 147 148 149 150 151 152 153 154 155 156 157 158