1. Die erweiterte Suche funktioniert wieder. Die LiveSearch ist vorübergehend deaktiviert

Wir verwenden Cookies, um deinen Aufenthalt auf Animes.so möglichst angenehm gestalten zu können. Mehr erfahren

3D Kanojo: Real Girl [Jap-Dub][Ger-Sub][720p][WebRip] - A4Y

Dieses Thema im Forum "Serien (GerSub)" wurde erstellt von dreambird1973, 13. Jan. 2019.

  1. dreambird1973

    dreambird1973 Erfahrener Otaku Otaku König

    Registriert seit:
    27. Mai 2013
    Beiträge:
    197
    Zustimmungen:
    898

    3D Kanojo: Real Girl
    3D彼女 リアルガール
    Real Girl



    [​IMG]


    Kurzbeschreibung:


    Spieldauer: 23min
    Genre: Romantische Komödie
    Nebengenres: Alltagsleben, Komödie, Romanze
    Jahr: 2018
    Sprache: Japanisch
    Untertitel: Deutsch
    Größe pro Folge:238mb
    Episodenanzahl: 12/12
    Format: MP4
    Auflösung: 720p (16:9)
    Videocodec: H264 (AVC)
    Audiocodec: AAC
    Releasegruppe: A4Y
    Hoster: Share-Online


    Code:
    Format                                   : MPEG-4
    Format profile                           : Base Media
    Codec ID                                 : isom
    File size                                : 238 MiB
    Duration                                 : 22mn 59s
    Overall bit rate                         : 1 450 Kbps
    Writing application                      : Lavf57.83.100
    
    Video
    ID                                       : 1
    Format                                   : AVC
    Format/Info                              : Advanced Video Codec
    Format profile                           : High@L3.1
    Format settings, CABAC                   : Yes
    Format settings, ReFrames                : 5 frames
    Codec ID                                 : avc1
    Codec ID/Info                            : Advanced Video Coding
    Duration                                 : 22mn 59s
    Bit rate                                 : 1 280 Kbps
    Width                                    : 1 280 pixels
    Height                                   : 720 pixels
    Display aspect ratio                     : 16:9
    Frame rate mode                          : Constant
    Frame rate                               : 23.976 fps
    Color space                              : YUV
    Chroma subsampling                       : 4:2:0
    Bit depth                                : 8 bits
    Scan type                                : Progressive
    Bits/(Pixel*Frame)                       : 0.058
    Stream size                              : 212 MiB (89%)
    Writing library                          : x264 core 148 r2643 5c65704
    Encoding settings                        : cabac=1 / ref=5 / deblock=1:0:0 / analyse=0x3:0x113 / me=hex / subme=7 / psy=1 / psy_rd=1.00:0.00 / mixed_ref=1 / me_range=16 / chroma_me=1 / trellis=1 / 8x8dct=1 / cqm=0 / deadzone=21,11 / fast_pskip=1 / chroma_qp_offset=-2 / threads=8 / lookahead_threads=8 / sliced_threads=1 / slices=8 / nr=0 / decimate=1 / interlaced=0 / bluray_compat=0 / constrained_intra=0 / bframes=0 / weightp=2 / keyint=250 / keyint_min=23 / scenecut=40 / intra_refresh=0 / rc=abr / mbtree=0 / bitrate=1280 / ratetol=1.0 / qcomp=0.60 / qpmin=0 / qpmax=69 / qpstep=4 / ip_ratio=1.40 / aq=1:1.00
    
    Audio
    ID                                       : 2
    Format                                   : AAC
    Format/Info                              : Advanced Audio Codec
    Format profile                           : LC
    Codec ID                                 : 40
    Duration                                 : 22mn 59s
    Bit rate mode                            : Constant
    Bit rate                                 : 157 Kbps
    Channel(s)                               : 2 channels
    Channel positions                        : Front: L R
    Sampling rate                            : 48.0 KHz
    Compression mode                         : Lossy
    Stream size                              : 25.9 MiB (11%)
    Language                                 : Japanese
    
    

    Share-Online: [​IMG]


    Geschützter Bereich
    Registriere dich oder logge dich ein, um den Inhalt sehen zu können
     
    GammaWar, Gelex, Vagabund und 21 anderen gefällt das.