1. Die erweiterte Suche funktioniert wieder. Die LiveSearch wird gegen Ende der Woche wieder funktionieren.

Wir verwenden Cookies, um deinen Aufenthalt auf Animes.so möglichst angenehm gestalten zu können. Mehr erfahren

Akagami no Shirayuki-hime S02 | Die rothaarige Schneeprinzessin Staffel 2 [Laufend][Ger-Jap-Dub][Ger-Sub][AC-3|DTS-HD][404p|720p|1080p][BluRay] - AST4u

Dieses Thema im Forum "Serien (GerDub)" wurde erstellt von Ta@, 13. Jan. 2019.

  1. Ta@

    Ta@ Treues Mitglied Seelenverkäufer

    Registriert seit:
    7. Juli 2016
    Beiträge:
    350
    Zustimmungen:
    13.095
    Akagami no Shirayuki-hime (2016)
    Die rothaarige Schneeprinzessin 2
    Snow White with the Red Hair Season 2, Snow White with the Red Hair 2nd Season, Snow White with the Red Hair 2, Red-haired Princess Snow White 2, Akagami no Shirayukihime 2, Snow White with the Red Hair (Staffel 2)

    [​IMG]
    [​IMG]

    Shirayuki arbeitet eifrig in der Hofapotheke des Schlosses Wistal, dennoch kreisen ihre Gedanken ständig um Prinz Zen, dem es genauso zu ergehen scheint und so versuchen die beiden in jeder freien Minute, dem anderen nah zu sein. Doch als Shirayuki, auf Befehl Prinz Izana's hin, zurück in ihre Heimat Tanbarun kehren soll, um dort Prinz Raji auf seinem Schloss zu besuchen, ist der Hof in heller Aufregung. Und als wäre dies nicht genug, erfährt das junge Mädchen erschrocken davon, dass ein mysteriöser Knabe aufgetaucht ist, um sie zu entführen. Prinz Zen setzt nun alles in Bewegung um seine geliebte Shirayuki zu beschützen.

    Wie der rote Faden des Schicksals verknüpft Shirayukis rotes Haar ihre Begegnung mit Zen, einem Prinzen des Nachbarlandes und führt die beiden nicht nur zusammen, sondern auch in das grösste Abenteuer ihres Lebens.

    Folgen: 4/12 + 1/1
    Größe pro Folge: ~260 MB/~550 MB/~1300 MB/~1900 MB
    Folgendauer: ~24 Min
    Releaser: AST4u
    Art: Lizenzrelease
    Sprache: Japanisch, Deutsch
    Untertitel: Deutsch
    Jahr: 2016
    Genres: Drama, Fantasy, Romanze
    Auflösung: 720x404/1280x720/1920x1080
    Format: MKV
    Quelle: BluRay
    Videocodec: x264
    Farbtiefe: 8Bit
    Audiocodec: AC3/DTS
    Publisher: KSM Anime
    Hoster: Share-Online

    [​IMG]
    Code:
    General Complete name : Die.rothaarige.Schneeprinzessin.S02Ep01.German.AC3.DL.BDRip.x264.AST4u.mkv Format : Matroska Format version : Version 4 File size : 264 MiB Duration : 24 min 12 s Overall bit rate : 1 524 kb/s Encoded date : UTC 2019-01-04 22:41:48 Writing application : mkvmerge v15.0.0 ('Duel with the Devil') 64-bit Writing library : libebml v1.3.5 + libmatroska v1.4.5 Video ID : 1 Format : AVC Format/Info : Advanced Video Codec Format profile : High@L4.1 Format settings : CABAC / 4 Ref Frames Format settings, CABAC : Yes Format settings, RefFrames : 4 frames Codec ID : V_MPEG4/ISO/AVC Duration : 24 min 12 s Bit rate : 733 kb/s Width : 720 pixels Height : 404 pixels Display aspect ratio : 16:9 Frame rate mode : Constant Frame rate : 23.976 (24000/1001) FPS Color space : YUV Chroma subsampling : 4:2:0 Bit depth : 8 bits Scan type : Progressive Bits/(Pixel*Frame) : 0.105 Stream size : 127 MiB (48%) Writing library : x264 core 152 r2851 ba24899 Encoding settings : cabac=1 / ref=3 / deblock=1:1:1 / analyse=0x3:0x133 / me=umh / subme=9 / psy=1 / psy_rd=1.00:0.00 / mixed_ref=1 / me_range=32 / chroma_me=1 / trellis=2 / 8x8dct=1 / cqm=0 / deadzone=21,11 / fast_pskip=1 / chroma_qp_offset=-2 / threads=13 / lookahead_threads=1 / sliced_threads=0 / nr=0 / decimate=1 / interlaced=0 / bluray_compat=0 / constrained_intra=0 / bframes=3 / b_pyramid=2 / b_adapt=2 / b_bias=0 / direct=3 / weightb=1 / open_gop=0 / weightp=2 / keyint=250 / keyint_min=25 / scenecut=40 / intra_refresh=0 / rc_lookahead=48 / rc=crf / mbtree=1 / crf=16.0 / qcomp=0.60 / qpmin=0 / qpmax=69 / qpstep=4 / ip_ratio=1.40 / aq=3:1.00 Default : Yes Forced : No Color range : Limited Matrix coefficients : BT.709 Audio #1 ID : 2 Format : AC-3 Format/Info : Audio Coding 3 Commercial name : Dolby Digital Codec ID : A_AC3 Duration : 24 min 12 s Bit rate mode : Constant Bit rate : 384 kb/s Channel(s) : 2 channels Channel layout : L R Sampling rate : 48.0 kHz Frame rate : 31.250 FPS (1536 SPF) Bit depth : 16 bits Compression mode : Lossy Stream size : 66.5 MiB (25%) Language : German Service kind : Complete Main Default : Yes Forced : No Audio #2 ID : 3 Format : AC-3 Format/Info : Audio Coding 3 Commercial name : Dolby Digital Codec ID : A_AC3 Duration : 24 min 12 s Bit rate mode : Constant Bit rate : 384 kb/s Channel(s) : 2 channels Channel layout : L R Sampling rate : 48.0 kHz Frame rate : 31.250 FPS (1536 SPF) Bit depth : 16 bits Compression mode : Lossy Stream size : 66.5 MiB (25%) Language : Japanese Service kind : Complete Main Default : No Forced : No Text #1 ID : 4 Format : PGS Muxing mode : zlib Codec ID : S_HDMV/PGS Codec ID/Info : Picture based subtitle format used on BDs/HD-DVDs Duration : 23 min 42 s Bit rate : 52.1 kb/s Count of elements : 660 Stream size : 8.83 MiB (3%) Language : German Default : No Forced : No Text #2 ID : 5 Format : PGS Muxing mode : zlib Codec ID : S_HDMV/PGS Codec ID/Info : Picture based subtitle format used on BDs/HD-DVDs Duration : 23 min 27 s Bit rate : 5 319 b/s Count of elements : 60 Stream size : 914 KiB (0%) Language : German Default : No Forced : No ​
    Code:
    General Complete name : Die.rothaarige.Schneeprinzessin.S02Ep01.German.AC3.DL.720p.BluRay.x264-AST4u.mkv Format : Matroska Format version : Version 4 File size : 538 MiB Duration : 24 min 12 s Overall bit rate : 3 106 kb/s Encoded date : UTC 2019-01-04 22:08:20 Writing application : mkvmerge v15.0.0 ('Duel with the Devil') 64-bit Writing library : libebml v1.3.5 + libmatroska v1.4.5 Video ID : 1 Format : AVC Format/Info : Advanced Video Codec Format profile : High@L4.1 Format settings : CABAC / 4 Ref Frames Format settings, CABAC : Yes Format settings, RefFrames : 4 frames Codec ID : V_MPEG4/ISO/AVC Duration : 24 min 12 s Bit rate : 2 188 kb/s Width : 1 280 pixels Height : 720 pixels Display aspect ratio : 16:9 Frame rate mode : Constant Frame rate : 23.976 (24000/1001) FPS Color space : YUV Chroma subsampling : 4:2:0 Bit depth : 8 bits Scan type : Progressive Bits/(Pixel*Frame) : 0.099 Stream size : 379 MiB (70%) Writing library : x264 core 152 r2851 ba24899 Encoding settings : cabac=1 / ref=3 / deblock=1:1:1 / analyse=0x3:0x133 / me=umh / subme=9 / psy=1 / psy_rd=1.00:0.00 / mixed_ref=1 / me_range=32 / chroma_me=1 / trellis=2 / 8x8dct=1 / cqm=0 / deadzone=21,11 / fast_pskip=1 / chroma_qp_offset=-2 / threads=22 / lookahead_threads=1 / sliced_threads=0 / nr=0 / decimate=1 / interlaced=0 / bluray_compat=0 / constrained_intra=0 / bframes=3 / b_pyramid=2 / b_adapt=2 / b_bias=0 / direct=3 / weightb=1 / open_gop=0 / weightp=2 / keyint=250 / keyint_min=25 / scenecut=40 / intra_refresh=0 / rc_lookahead=48 / rc=crf / mbtree=1 / crf=16.0 / qcomp=0.60 / qpmin=0 / qpmax=69 / qpstep=4 / ip_ratio=1.40 / aq=3:1.00 Default : Yes Forced : No Color range : Limited Matrix coefficients : BT.709 Audio #1 ID : 2 Format : AC-3 Format/Info : Audio Coding 3 Commercial name : Dolby Digital Codec ID : A_AC3 Duration : 24 min 12 s Bit rate mode : Constant Bit rate : 448 kb/s Channel(s) : 6 channels Channel layout : L R C LFE Ls Rs Sampling rate : 48.0 kHz Frame rate : 31.250 FPS (1536 SPF) Bit depth : 16 bits Compression mode : Lossy Stream size : 77.6 MiB (14%) Language : German Service kind : Complete Main Default : Yes Forced : No Audio #2 ID : 3 Format : AC-3 Format/Info : Audio Coding 3 Commercial name : Dolby Digital Codec ID : A_AC3 Duration : 24 min 12 s Bit rate mode : Constant Bit rate : 448 kb/s Channel(s) : 2 channels Channel layout : L R Sampling rate : 48.0 kHz Frame rate : 31.250 FPS (1536 SPF) Bit depth : 16 bits Compression mode : Lossy Stream size : 77.5 MiB (14%) Language : Japanese Service kind : Complete Main Default : No Forced : No Text #1 ID : 4 Format : PGS Muxing mode : zlib Codec ID : S_HDMV/PGS Codec ID/Info : Picture based subtitle format used on BDs/HD-DVDs Duration : 23 min 42 s Bit rate : 52.1 kb/s Count of elements : 660 Stream size : 8.83 MiB (2%) Language : German Default : No Forced : No Text #2 ID : 5 Format : PGS Muxing mode : zlib Codec ID : S_HDMV/PGS Codec ID/Info : Picture based subtitle format used on BDs/HD-DVDs Duration : 23 min 27 s Bit rate : 5 319 b/s Count of elements : 60 Stream size : 914 KiB (0%) Language : German Default : No Forced : No ​
    Code:
    General Complete name : Die.rothaarige.Schneeprinzessin.S02Ep01.German.AC3.DL.1080p.BluRay.x264-AST4u.mkv Format : Matroska Format version : Version 4 File size : 1.37 GiB Duration : 24 min 12 s Overall bit rate : 8 123 kb/s Encoded date : UTC 2019-01-04 23:08:13 Writing application : mkvmerge v19.0.0 ('Brave Captain') 64-bit Writing library : libebml v1.3.5 + libmatroska v1.4.8 Video ID : 1 Format : AVC Format/Info : Advanced Video Codec Format profile : High@L4.1 Format settings : CABAC / 4 Ref Frames Format settings, CABAC : Yes Format settings, RefFrames : 4 frames Codec ID : V_MPEG4/ISO/AVC Duration : 24 min 12 s Bit rate : 7 205 kb/s Width : 1 920 pixels Height : 1 080 pixels Display aspect ratio : 16:9 Frame rate mode : Constant Frame rate : 23.976 (24000/1001) FPS Color space : YUV Chroma subsampling : 4:2:0 Bit depth : 8 bits Scan type : Progressive Bits/(Pixel*Frame) : 0.145 Stream size : 1.22 GiB (89%) Writing library : x264 core 152 r2851 ba24899 Encoding settings : cabac=1 / ref=3 / deblock=1:1:1 / analyse=0x3:0x133 / me=umh / subme=9 / psy=1 / psy_rd=1.00:0.00 / mixed_ref=1 / me_range=32 / chroma_me=1 / trellis=2 / 8x8dct=1 / cqm=0 / deadzone=21,11 / fast_pskip=1 / chroma_qp_offset=-2 / threads=24 / lookahead_threads=2 / sliced_threads=0 / nr=0 / decimate=1 / interlaced=0 / bluray_compat=0 / constrained_intra=0 / bframes=3 / b_pyramid=2 / b_adapt=2 / b_bias=0 / direct=3 / weightb=1 / open_gop=0 / weightp=2 / keyint=250 / keyint_min=25 / scenecut=40 / intra_refresh=0 / rc_lookahead=48 / rc=crf / mbtree=1 / crf=16.0 / qcomp=0.60 / qpmin=0 / qpmax=69 / qpstep=4 / ip_ratio=1.40 / aq=3:1.00 Default : Yes Forced : No Color range : Limited Matrix coefficients : BT.709 Audio #1 ID : 2 Format : AC-3 Format/Info : Audio Coding 3 Commercial name : Dolby Digital Codec ID : A_AC3 Duration : 24 min 12 s Bit rate mode : Constant Bit rate : 448 kb/s Channel(s) : 6 channels Channel layout : L R C LFE Ls Rs Sampling rate : 48.0 kHz Frame rate : 31.250 FPS (1536 SPF) Bit depth : 16 bits Compression mode : Lossy Stream size : 77.6 MiB (6%) Language : German Service kind : Complete Main Default : Yes Forced : No Audio #2 ID : 3 Format : AC-3 Format/Info : Audio Coding 3 Commercial name : Dolby Digital Codec ID : A_AC3 Duration : 24 min 12 s Bit rate mode : Constant Bit rate : 448 kb/s Channel(s) : 2 channels Channel layout : L R Sampling rate : 48.0 kHz Frame rate : 31.250 FPS (1536 SPF) Bit depth : 16 bits Compression mode : Lossy Stream size : 77.5 MiB (6%) Language : Japanese Service kind : Complete Main Default : No Forced : No Text #1 ID : 4 Format : PGS Muxing mode : zlib Codec ID : S_HDMV/PGS Codec ID/Info : Picture based subtitle format used on BDs/HD-DVDs Duration : 23 min 42 s Bit rate : 52.1 kb/s Count of elements : 660 Stream size : 8.83 MiB (1%) Title : Deutsch Language : German Default : No Forced : No Text #2 ID : 5 Format : PGS Muxing mode : zlib Codec ID : S_HDMV/PGS Codec ID/Info : Picture based subtitle format used on BDs/HD-DVDs Duration : 23 min 27 s Bit rate : 5 319 b/s Count of elements : 60 Stream size : 914 KiB (0%) Title : Deutsch Language : German Default : No Forced : No ​
    Code:
    General Complete name : Die.rothaarige.Schneeprinzessin.S02Ep01.German.DTS.DL.1080p.BluRay.x264-AST4u.mkv Format : Matroska Format version : Version 4 File size : 1.83 GiB Duration : 24 min 12 s Overall bit rate mode : Variable Overall bit rate : 10.8 Mb/s Encoded date : UTC 2019-01-04 23:15:57 Writing application : mkvmerge v19.0.0 ('Brave Captain') 64-bit Writing library : libebml v1.3.5 + libmatroska v1.4.8 Video ID : 1 Format : AVC Format/Info : Advanced Video Codec Format profile : High@L4.1 Format settings : CABAC / 4 Ref Frames Format settings, CABAC : Yes Format settings, RefFrames : 4 frames Codec ID : V_MPEG4/ISO/AVC Duration : 24 min 12 s Bit rate : 7 205 kb/s Width : 1 920 pixels Height : 1 080 pixels Display aspect ratio : 16:9 Frame rate mode : Constant Frame rate : 23.976 (24000/1001) FPS Color space : YUV Chroma subsampling : 4:2:0 Bit depth : 8 bits Scan type : Progressive Bits/(Pixel*Frame) : 0.145 Stream size : 1.22 GiB (67%) Writing library : x264 core 152 r2851 ba24899 Encoding settings : cabac=1 / ref=3 / deblock=1:1:1 / analyse=0x3:0x133 / me=umh / subme=9 / psy=1 / psy_rd=1.00:0.00 / mixed_ref=1 / me_range=32 / chroma_me=1 / trellis=2 / 8x8dct=1 / cqm=0 / deadzone=21,11 / fast_pskip=1 / chroma_qp_offset=-2 / threads=24 / lookahead_threads=2 / sliced_threads=0 / nr=0 / decimate=1 / interlaced=0 / bluray_compat=0 / constrained_intra=0 / bframes=3 / b_pyramid=2 / b_adapt=2 / b_bias=0 / direct=3 / weightb=1 / open_gop=0 / weightp=2 / keyint=250 / keyint_min=25 / scenecut=40 / intra_refresh=0 / rc_lookahead=48 / rc=crf / mbtree=1 / crf=16.0 / qcomp=0.60 / qpmin=0 / qpmax=69 / qpstep=4 / ip_ratio=1.40 / aq=3:1.00 Default : Yes Forced : No Color range : Limited Matrix coefficients : BT.709 Audio #1 ID : 2 Format : DTS XLL Format/Info : Digital Theater Systems Commercial name : DTS-HD Master Audio Codec ID : A_DTS Duration : 24 min 12 s Bit rate mode : Variable Bit rate : 1 953 kb/s Channel(s) : 6 channels Channel layout : C L R Ls Rs LFE Sampling rate : 48.0 kHz Frame rate : 93.750 FPS (512 SPF) Bit depth : 16 bits Compression mode : Lossless Stream size : 338 MiB (18%) Language : German Default : Yes Forced : No Audio #2 ID : 3 Format : DTS XLL Format/Info : Digital Theater Systems Commercial name : DTS-HD Master Audio Codec ID : A_DTS Duration : 24 min 12 s Bit rate mode : Variable Bit rate : 1 649 kb/s Channel(s) : 2 channels Channel layout : L R Sampling rate : 48.0 kHz Frame rate : 93.750 FPS (512 SPF) Bit depth : 16 bits Compression mode : Lossless Stream size : 285 MiB (15%) Language : Japanese Default : No Forced : No Text #1 ID : 4 Format : PGS Muxing mode : zlib Codec ID : S_HDMV/PGS Codec ID/Info : Picture based subtitle format used on BDs/HD-DVDs Duration : 23 min 42 s Bit rate : 52.1 kb/s Count of elements : 660 Stream size : 8.83 MiB (0%) Language : German Default : Yes Forced : No Text #2 ID : 5 Format : PGS Muxing mode : zlib Codec ID : S_HDMV/PGS Codec ID/Info : Picture based subtitle format used on BDs/HD-DVDs Duration : 23 min 27 s Bit rate : 5 319 b/s Count of elements : 60 Stream size : 914 KiB (0%) Language : German Default : No Forced : No ​

    Anmerkung:
    Dies ist ein Original BluRay Encode.

    408p:[​IMG]720p:[​IMG]1080p:[​IMG]1080p DTS:[​IMG]

    Geschützter Bereich
    Registriere dich oder logge dich ein, um den Inhalt sehen zu können
     
1!-- -->