Welcome to our Community
Wanting to join the rest of our members? Feel free to sign up today.
Sign up

Live Action Alice in Borderland Staffel 1+2 | Imawa no Kuni no Alice I+II [Ger-Eng-Jap-Dub][Ger-Eng-Sub][720p|1080p][Web-DL] - Netflix

Azugo

H͓̽u͓̽g͓̽o͓̽ ͓̽&͓̽ ͓̽A͓̽z͓̽u͓̽r͓̽a͓̽
Otaku Gott
Uploader
25 März 2020
3.258
25.509
118


Alice in Borderland Staffel 1+2 | Imawa no Kuni no Alice I+II




27748_300.webp



oie_bchbujbgr3vm-png.30595

anisearch.com schrieb:
»Alice in Borderland« geht in die zweite Runde und setzt die Kartensuche von Ryouhei Arisu und seinen Freunden fort. Da sie nun die ganzen Zahlenkarten ergattert haben, startet die zweite Stage für die Spieler in Borderland. Jetzt heißt es, die Bildkarten Bube, Dame und König zu sammeln. Doch bereits die erste Bildkarte, die des Pik-Königs, stellt ein großes Problem dar: Die Spielregeln werden nicht erklärt und das Spielfeld scheint die ganze Stadt zu sein. Zudem werden Arisu, Usagi, Kuina und Tatta von Ann und Chishiya getrennt.

Um dem Pik-König zu entkommen und Antworten auf ihre Fragen zu bekommen, entschließen sie sich, dem Spiel des Kreuz-Königs Ginji Kyuma beizutreten. Zusammen mit einem totgeglaubten Feind treten sie in einem Teamspiel gegen den König und sein Team an. Werden sie es schaffen, das Spiel zu gewinnen und so herauszufinden, wer diese Welt erschaffen hat und wie man in die richtige Welt zurückkehrt?
Quelle: https://www.anisearch.de/movie/27748



oie_bchbujbgr3vm1-png.30596


Spieldauer: ~50min
Genre: Thriller
Nebengenres: -
Sprache:
Japanisch.png
Japanisch,
Deutsch.png
Deutsch,
Englisch.png
Englisch
Untertitel:
Deutsch.png
Deutsch,
Englisch.png
Englisch,
Deutsch.png
Deutsch (Forced)
Größe pro Folge: ~608mb, ~723mb
Episodenanzahl: 08/08
Format: MKV
Auflösung: 1080p (16:9)
Videocodec: H264 (AVC)
Audiocodec: E-AC-3
Releasegruppe: Anime Otakus
Hoster:
rapidgator-gif.30742
Rapidgator,
ddownload-gif.30720
ddownload


oie_bchbujbgr3vm2-png.30597

Rich (BBCode):
Format                                   : Matroska
Format version                           : Version 4
File size                                : 2.66 GiB
Duration                                 : 49 min 9 s
Overall bit rate mode                    : Variable
Overall bit rate                         : 7 735 kb/s
Encoded date                             : UTC 2023-01-16 18:38:24
Writing application                      : mkvmerge v63.0.0 ('Everything') 32-bit
Writing library                          : libebml v1.4.2 + libmatroska v1.6.4

Video
ID                                       : 1
Format                                   : AVC
Format/Info                              : Advanced Video Codec
Format profile                           : [email protected]
Format settings                          : CABAC / 3 Ref Frames
Format settings, CABAC                   : Yes
Format settings, Reference frames        : 3 frames
Codec ID                                 : V_MPEG4/ISO/AVC
Duration                                 : 49 min 9 s
Bit rate mode                            : Variable
Bit rate                                 : 5 813 kb/s
Nominal bit rate                         : 6 190 kb/s
Maximum bit rate                         : 9 285 kb/s
Width                                    : 1 920 pixels
Height                                   : 1 080 pixels
Display aspect ratio                     : 16:9
Frame rate mode                          : Constant
Frame rate                               : 23.976 (24000/1001) FPS
Color space                              : YUV
Chroma subsampling                       : 4:2:0
Bit depth                                : 8 bits
Scan type                                : Progressive
Bits/(Pixel*Frame)                       : 0.117
Stream size                              : 2.00 GiB (75%)
Writing library                          : x264 core 148 r2727 7d026e8
Encoding settings                        : cabac=1 / ref=3 / deblock=1:0:0 / analyse=0x1:0x111 / me=umh / subme=10 / psy=1 / psy_rd=1.00:0.00 / mixed_ref=1 / me_range=24 / chroma_me=1 / trellis=2 / 8x8dct=0 / cqm=0 / deadzone=21,11 / fast_pskip=1 / chroma_qp_offset=-2 / threads=8 / lookahead_threads=1 / sliced_threads=0 / nr=0 / decimate=1 / interlaced=0 / bluray_compat=0 / stitchable=1 / constrained_intra=0 / bframes=2 / b_pyramid=0 / b_adapt=2 / b_bias=0 / direct=3 / weightb=1 / open_gop=0 / weightp=2 / keyint=250 / keyint_min=23 / scenecut=0 / intra_refresh=0 / rc_lookahead=48 / rc=2pass / mbtree=1 / bitrate=6190 / ratetol=1.0 / qcomp=0.50 / qpmin=6 / qpmax=51 / qpstep=4 / cplxblur=20.0 / qblur=0.5 / vbv_maxrate=9285 / vbv_bufsize=12380 / nal_hrd=vbr / filler=0 / ip_ratio=1.40 / aq=1:1.00
Language                                 : Japanese
Default                                  : Yes
Forced                                   : No

Audio #1
ID                                       : 2
Format                                   : E-AC-3
Format/Info                              : Enhanced AC-3
Commercial name                          : Dolby Digital Plus
Codec ID                                 : A_EAC3
Duration                                 : 49 min 9 s
Bit rate mode                            : Constant
Bit rate                                 : 640 kb/s
Channel(s)                               : 6 channels
Channel layout                           : L R C LFE Ls Rs
Sampling rate                            : 48.0 kHz
Frame rate                               : 31.250 FPS (1536 SPF)
Compression mode                         : Lossy
Stream size                              : 225 MiB (8%)
Language                                 : German
Service kind                             : Complete Main
Default                                  : Yes
Forced                                   : No

Audio #2
ID                                       : 3
Format                                   : E-AC-3
Format/Info                              : Enhanced AC-3
Commercial name                          : Dolby Digital Plus
Codec ID                                 : A_EAC3
Duration                                 : 49 min 9 s
Bit rate mode                            : Constant
Bit rate                                 : 640 kb/s
Channel(s)                               : 6 channels
Channel layout                           : L R C LFE Ls Rs
Sampling rate                            : 48.0 kHz
Frame rate                               : 31.250 FPS (1536 SPF)
Compression mode                         : Lossy
Stream size                              : 225 MiB (8%)
Language                                 : English
Service kind                             : Complete Main
Default                                  : No
Forced                                   : No

Audio #3
ID                                       : 4
Format                                   : E-AC-3
Format/Info                              : Enhanced AC-3
Commercial name                          : Dolby Digital Plus
Codec ID                                 : A_EAC3
Duration                                 : 49 min 9 s
Bit rate mode                            : Constant
Bit rate                                 : 640 kb/s
Channel(s)                               : 6 channels
Channel layout                           : L R C LFE Ls Rs
Sampling rate                            : 48.0 kHz
Frame rate                               : 31.250 FPS (1536 SPF)
Compression mode                         : Lossy
Stream size                              : 225 MiB (8%)
Language                                 : Japanese
Service kind                             : Complete Main
Default                                  : No
Forced                                   : No

Text #1
ID                                       : 5
Format                                   : UTF-8
Codec ID                                 : S_TEXT/UTF8
Codec ID/Info                            : UTF-8 Plain Text
Duration                                 : 46 min 54 s
Bit rate                                 : 5 b/s
Count of elements                        : 71
Stream size                              : 1.80 KiB (0%)
Title                                    : Forced
Language                                 : German
Default                                  : Yes
Forced                                   : Yes

Text #2
ID                                       : 6
Format                                   : UTF-8
Codec ID                                 : S_TEXT/UTF8
Codec ID/Info                            : UTF-8 Plain Text
Duration                                 : 46 min 54 s
Bit rate                                 : 39 b/s
Count of elements                        : 507
Stream size                              : 13.7 KiB (0%)
Language                                 : German
Default                                  : No
Forced                                   : No

Text #3
ID                                       : 7
Format                                   : UTF-8
Codec ID                                 : S_TEXT/UTF8
Codec ID/Info                            : UTF-8 Plain Text
Duration                                 : 46 min 52 s
Bit rate                                 : 4 b/s
Count of elements                        : 58
Stream size                              : 1.43 KiB (0%)
Title                                    : Forced
Language                                 : English
Default                                  : No
Forced                                   : Yes

Text #4
ID                                       : 8
Format                                   : UTF-8
Codec ID                                 : S_TEXT/UTF8
Codec ID/Info                            : UTF-8 Plain Text
Duration                                 : 45 min 41 s
Bit rate                                 : 60 b/s
Count of elements                        : 750
Stream size                              : 20.3 KiB (0%)
Title                                    : SDH
Language                                 : English
Default                                  : No
Forced                                   : No

Text #5
ID                                       : 9
Format                                   : UTF-8
Codec ID                                 : S_TEXT/UTF8
Codec ID/Info                            : UTF-8 Plain Text
Duration                                 : 46 min 54 s
Bit rate                                 : 37 b/s
Count of elements                        : 488
Stream size                              : 13.0 KiB (0%)
Language                                 : English
Default                                  : No
Forced                                   : No

Text #6
ID                                       : 10
Format                                   : UTF-8
Codec ID                                 : S_TEXT/UTF8
Codec ID/Info                            : UTF-8 Plain Text
Duration                                 : 45 min 7 s
Bit rate                                 : 42 b/s
Count of elements                        : 528
Stream size                              : 14.1 KiB (0%)
Language                                 : English
Default                                  : No
Forced                                   : No




oie_bchbujbgr3vm3-png.30598

cooltext396117611400625-png.30739

CCC93870E5.png

cooltext3961176114006251-png.30741

7C652BD03B.png

To view the content, you need to Sign In or Register.