Wir verwenden Cookies, um deinen Aufenthalt auf Animes.so möglichst angenehm gestalten zu können. Mehr erfahren

OVA Asagao to Kase-san. OVA [Jap-Dub][Eng-Sub][1080p][10-Bit][x265][BluRay] - Beatrice-Raws

Dieses Thema im Forum "Anime Series (English Subtitles)" wurde erstellt von Platelets, 16. Juli 2018.

  1. Platelets

    Platelets Neuling auf Bewährung Otaku Amateur

    Registriert seit:
    1. Jan. 2018
    Beiträge:
    9
    Zustimmungen:
    144
    Asagao to Kase-san
    [​IMG]

    Kurzbeschreibung:

    Folgenanzahl: 1/1
    Bonusfolgen (MV): 2/2
    BD Menu (JPG): Vol.1-2
    OVA Größe: ~4,68GB
    Bonus Göße: ~740mb
    Folgendauer: ~58min
    Produktionshaus: ZEXCS Inc.
    Lizenzhaber: -
    Releaser: Platelets
    Gruppe: Beatrice-Raws
    Art: Fansub
    Sprache: Japanisch
    Untertitel: Englisch
    [Picture based subtitle format used on BDs/HD-DVDs]
    Auflösung: 1080p
    Format: MKV
    Quelle: BluRay
    Videocodec: HEVC
    Farbtiefe: 10bit
    Audiocodec: FLAC
    Hoster: Share-Online

    Format : Matroska
    Format version : Version 4 / Version 2
    File size : 4.69 GiB
    Duration : 58 min 5 s
    Overall bit rate mode : Variable
    Overall bit rate : 11.5 Mb/s
    Encoded date : UTC 2018-07-04 19:51:59
    Writing application : mkvmerge v23.0.0 ('The Bride Said No') 64-bit
    Writing library : libebml v1.3.6 + libmatroska v1.4.9

    Video
    ID : 1
    Format : HEVC
    Format/Info : High Efficiency Video Coding
    Format profile : Main 10@L4@Main
    Codec ID : V_MPEGH/ISO/HEVC
    Duration : 58 min 5 s
    Bit rate : 10.2 Mb/s
    Width : 1 920 pixels
    Height : 1 080 pixels
    Display aspect ratio : 16:9
    Frame rate mode : Constant
    Frame rate : 23.976 (24000/1001) FPS
    Color space : YUV
    Chroma subsampling : 4:2:0
    Bit depth : 10 bits
    Bits/(Pixel*Frame) : 0.206
    Stream size : 4.15 GiB (89%)
    Title : BDrip by Jensen
    Writing library : x265 2.8:[Windows][ICC 1700][64 bit] 10bit
    Encoding settings : cpuid=1049071 / frame-threads=4 / numa-pools=12,12 / wpp / no-pmode / no-pme / no-psnr / no-ssim / log-level=2 / csv / csv-log-level=0 / input-csp=1 / input-res=1920x1080 / interlace=0 / total-frames=0 / level-idc=0 / high-tier=1 / uhd-bd=0 / ref=4 / no-allow-non-conformance / no-repeat-headers / annexb / no-aud / no-hrd / info / hash=0 / no-temporal-layers / open-gop / min-keyint=23 / keyint=240 / gop-lookahead=0 / bframes=9 / b-adapt=2 / b-pyramid / bframe-bias=0 / rc-lookahead=20 / lookahead-slices=6 / scenecut=40 / radl=0 / no-intra-refresh / ctu=64 / min-cu-size=8 / no-rect / no-amp / max-tu-size=32 / tu-inter-depth=2 / tu-intra-depth=2 / limit-tu=0 / rdoq-level=2 / dynamic-rd=0.00 / no-ssim-rd / signhide / no-tskip / nr-intra=0 / nr-inter=0 / no-constrained-intra / strong-intra-smoothing / max-merge=2 / limit-refs=3 / no-limit-modes / me=2 / subme=5 / merange=48 / temporal-mvp / weightp / weightb / no-analyze-src-pics / deblock=1:-1 / no-sao / no-sao-non-deblock / rd=4 / no-early-skip / no-rskip / no-fast-intra / no-tskip-fast / no-cu-lossless / no-b-intra / no-splitrd-skip / rdpenalty=0 / psy-rd=1.00 / psy-rdoq=2.00 / no-rd-refine / no-lossless / cbqpoffs=-2 / crqpoffs=-2 / rc=crf / crf=15.0 / qcomp=0.72 / qpstep=4 / stats-write=0 / stats-read=0 / ipratio=1.40 / pbratio=1.30 / aq-mode=3 / aq-strength=0.85 / no-cutree / zone-count=0 / no-strict-cbr / qg-size=32 / no-rc-grain / qpmax=69 / qpmin=0 / no-const-vbv / sar=1 / overscan=0 / videoformat=5 / range=0 / colorprim=1 / transfer=1 / colormatrix=1 / chromaloc=0 / display-window=0 / max-cll=0,0 / min-luma=0 / max-luma=1023 / log2-max-poc-lsb=8 / vui-timing-info / vui-hrd-info / slices=1 / no-opt-qp-pps / no-opt-ref-list-length-pps / no-multi-pass-opt-rps / scenecut-bias=0.05 / no-opt-cu-delta-qp / aq-motion / no-hdr / no-hdr-opt / no-dhdr10-opt / no-idr-recovery-sei / analysis-reuse-level=5 / scale-factor=0 / refine-intra=0 / refine-inter=0 / refine-mv=0 / no-limit-sao / ctu-info=0 / no-lowpass-dct / refine-mv-type=0 / copy-pic=1 / max-ausize-factor=1.0 / no-dynamic-refine / no-single-sei
    Language : Japanese
    Default : Yes
    Forced : No
    Color range : Limited
    Color primaries : BT.709
    Transfer characteristics : BT.709
    Matrix coefficients : BT.709

    Audio
    ID : 2
    Format : FLAC
    Format/Info : Free Lossless Audio Codec
    Codec ID : A_FLAC
    Duration : 58 min 5 s
    Bit rate mode : Variable
    Bit rate : 1 310 kb/s
    Channel(s) : 2 channels
    Channel positions : Front: L R
    Sampling rate : 48.0 kHz
    Frame rate : 11.719 FPS (4096 SPF)
    Bit depth : 24 bits
    Stream size : 544 MiB (11%)
    Writing library : libFLAC 1.3.2 (UTC 2017-01-01)
    Language : Japanese
    Default : Yes
    Forced : No

    Text
    ID : 3
    Format : PGS
    Muxing mode : zlib
    Codec ID : S_HDMV/PGS
    Codec ID/Info : Picture based subtitle format used on BDs/HD-DVDs
    Duration : 55 min 51 s
    Bit rate : 26.5 kb/s
    Count of elements : 1130
    Stream size : 10.6 MiB (0%)
    Title : Eng
    Language : English
    Default : Yes
    Forced : No

    Menu
    00:00:00.000 : :Logo
    00:00:34.034 : :OP
    00:02:15.885 : :Ep 1 - Part A
    00:10:45.686 : :Ep 1 - Part B
    00:17:51.278 : :Ep 2 - Part A
    00:27:09.252 : :Ep 2 - Part B
    00:37:34.961 : :Ep 3 - Part A
    00:44:45.182 : :Ep 3 - Part B
    00:52:40.031 : :ED
    Update:
    Da Share-Online nun down ist werde ich erstmal abwarten und gucken zu welchem Hoster ich nun wechseln werde, deswegen wird der ReUp etwas dauern wenn er denn überhaupt kommt.


    Online Status: DOWN
    Geschützter Bereich
    Registriere dich oder logge dich ein, um den Inhalt sehen zu können
     
    Zuletzt bearbeitet: 19. Okt. 2019

Diese Seite empfehlen