• Wie Du sicherlich schon gesehen hast, hat sich Animes.so gewaltig verändert. Klicke hier um mehr Informationen darüber zu erhalten.

Attack on Titan Final Season Part 2 [Ger-Dub][1080p][Web-DL] - Wakanim

Kleinmike

Premium Spender
Premium
Uploader
Otaku König
Beiträge
179
Punkte Reaktionen
2.154
Punkte
93
Attack on Titan Final Season Part 2
進撃の巨人 The Final Season (2022) | Shingeki no Kyojin: The Final Season (2022)

16103.webp


Beschreibung:
Mit »Attack on Titan Final Season Part 2«, dem zweiten Part der vierten und letzten Staffel von Hajime Isayamas gleichnamigem Manga, geht »Attack on Titan« endlich in die finale Runde und setzt die Geschichte von Eren, Mikasa, Armin und und dem Rest des Aufklärungstrupps fort.

Nachdem Zeke den Donnerspeer ausgelöst und Levi in die Luft gesprengt hat, haben Flocke und die anderen »Jägeristen« sie durch die Explosion entdeckt. Während Zeke geheilt aus einem kleinen Titanen heraustritt, nutzt Hanji dies als Ablenkung, um mit Levis Überresten zu fliehen. Allerdings hat Zeke ein wichtigeres Ziel: die Wiedervereinigung mit Eren, um das Erdrumoren des Urtitanen auszulösen und so ihren Plan für den »Gnadentod« der Eldia in die Tat umzusetzen.

Gleichzeitig startet Marley einen Überraschungsangriff auf den Bezirk Shiganshina, um die Kräfte des Urtitanen wiederzuerlangen und das Ende der Welt zu verhindern. An Bord der angreifenden Schiffe befindet sich auch Reiner, der zusammen mit Porco und Pieck einen Angriff auf Eren startet. Zwei alte Freunde, die sich dort treffen, wo alles begann. Unterdessen befreit Onyankopon die Mitglieder des Aufklärungstrupps und ihre Freunde, die von den Jägeristen in einem Kellerverlies eingesperrt wurden, mit der Bitte, Eren zu helfen. Denn er ist der Einzige, der Paradis und die Eldia noch retten kann …
Quelle: anisearch


Folgen: 12/12
Größe pro Folge: 900 MB
Sprache: Deutsch
Untertitel: Deutsch
Jahr: 2012
Genres: Actiondrama, Abenteur, Horror, Fantasy, Übermäßige Gewaltdarstellung
Auflösung: 1920x1080
Format: MKV
Videocodec: x264
Farbtiefe: 8bit
Audiocodec: AAC LC
Publisher: Wakanim, Crunchyroll
Hoster: DDownload | Uploaded

Mediainfo:
Code:
Format                                   : Matroska
Format version                           : Version 4
File size                                : 890 MiB
Duration                                 : 24 min 12 s
Overall bit rate                         : 5 139 kb/s
Encoded date                             : UTC 2022-03-15 19:13:00
Writing application                      : mkvmerge v59.0.0 ('Shining Star') 64-bit
Writing library                          : libebml v1.4.2 + libmatroska v1.6.4

Video
ID                                       : 1
Format                                   : AVC
Format/Info                              : Advanced Video Codec
Format profile                           : [email protected]
Format settings                          : CABAC / 4 Ref Frames
Format settings, CABAC                   : Yes
Format settings, Reference frames        : 4 frames
Codec ID                                 : V_MPEG4/ISO/AVC
Duration                                 : 24 min 12 s
Bit rate                                 : 5 000 kb/s
Width                                    : 1 920 pixels
Height                                   : 1 080 pixels
Display aspect ratio                     : 16:9
Frame rate mode                          : Constant
Frame rate                               : 23.976 FPS
Color space                              : YUV
Chroma subsampling                       : 4:2:0
Bit depth                                : 8 bits
Scan type                                : Progressive
Bits/(Pixel*Frame)                       : 0.101
Stream size                              : 868 MiB (97%)
Writing library                          : x264 core 155
Encoding settings                        : cabac=1 / ref=3 / deblock=1:0:0 / analyse=0x3:0x113 / me=hex / subme=6 / psy=1 / psy_rd=1.00:0.00 / mixed_ref=0 / me_range=16 / chroma_me=1 / trellis=1 / 8x8dct=1 / cqm=0 / deadzone=21,11 / fast_pskip=1 / chroma_qp_offset=-2 / threads=24 / lookahead_threads=4 / sliced_threads=0 / nr=0 / decimate=1 / interlaced=0 / bluray_compat=0 / constrained_intra=0 / bframes=3 / b_pyramid=2 / b_adapt=1 / b_bias=0 / direct=1 / weightb=1 / open_gop=0 / weightp=2 / keyint=250 / keyint_min=23 / scenecut=0 / intra_refresh=0 / rc_lookahead=40 / rc=abr / mbtree=1 / bitrate=5000 / ratetol=1.0 / qcomp=0.60 / qpmin=0 / qpmax=69 / qpstep=4 / vbv_maxrate=7000 / vbv_bufsize=35000 / nal_hrd=none / filler=0 / ip_ratio=1.40 / aq=1:1.00
Default                                  : Yes
Forced                                   : No

Audio
ID                                       : 2
Format                                   : AAC LC
Format/Info                              : Advanced Audio Codec Low Complexity
Codec ID                                 : A_AAC-2
Duration                                 : 24 min 12 s
Bit rate                                 : 128 kb/s
Channel(s)                               : 2 channels
Channel layout                           : L R
Sampling rate                            : 48.0 kHz
Frame rate                               : 46.875 FPS (1024 SPF)
Compression mode                         : Lossy
Stream size                              : 22.2 MiB (2%)
Default                                  : Yes
Forced                                   : No

Text
ID                                       : 3
Format                                   : ASS
Codec ID                                 : S_TEXT/ASS
Codec ID/Info                            : Advanced Sub Station Alpha
Duration                                 : 18 min 45 s
Bit rate                                 : 1 b/s
Count of elements                        : 4
Compression mode                         : Lossless
Stream size                              : 210 Bytes (0%)
Language                                 : German
Default                                  : Yes
Forced                                   : No
Status:
1080p:
EE8E376267.png


To view the content, you need to Sign In or Register.
 
Zuletzt bearbeitet:
Oben