Welcome to our Community
Wanting to join the rest of our members? Feel free to sign up today.
Sign up

Attack on Titan Final Season Part 2 | Shingeki no Kyojin: The Final Season (2022) [Jap-Dub][Ger-Eng-Sub][720p|1080p][Web-DL]-CR

Kleinmike

Uploader
Otaku König
21 März 2021
205
2.692
93
Attack on Titan Final Season Part 2
Shingeki no Kyojin: The Final Season (2022) | 進撃の巨人 The Final Season (2022)

16103.webp


Beschreibung:
Mit »Attack on Titan Final Season Part 2«, dem zweiten Part der vierten und letzten Staffel von Hajime Isayamas gleichnamigem Manga, geht »Attack on Titan« endlich in die finale Runde und setzt die Geschichte von Eren, Mikasa, Armin und und dem Rest des Aufklärungstrupps fort.

Nachdem Zeke den Donnerspeer ausgelöst und Levi in die Luft gesprengt hat, haben Flocke und die anderen »Jägeristen« sie durch die Explosion entdeckt. Während Zeke geheilt aus einem kleinen Titanen heraustritt, nutzt Hanji dies als Ablenkung, um mit Levis Überresten zu fliehen. Allerdings hat Zeke ein wichtigeres Ziel: die Wiedervereinigung mit Eren, um das Erdrumoren des Urtitanen auszulösen und so ihren Plan für den »Gnadentod« der Eldia in die Tat umzusetzen.

Gleichzeitig startet Marley einen Überraschungsangriff auf den Bezirk Shiganshina, um die Kräfte des Urtitanen wiederzuerlangen und das Ende der Welt zu verhindern. An Bord der angreifenden Schiffe befindet sich auch Reiner, der zusammen mit Porco und Pieck einen Angriff auf Eren startet. Zwei alte Freunde, die sich dort treffen, wo alles begann. Unterdessen befreit Onyankopon die Mitglieder des Aufklärungstrupps und ihre Freunde, die von den Jägeristen in einem Kellerverlies eingesperrt wurden, mit der Bitte, Eren zu helfen. Denn er ist der Einzige, der Paradis und die Eldia noch retten kann …
Quelle: aniSearch


Folgen: 12/12
Größe pro Folge: ~1400 MB
Sprache: Japanisch
Untertitel: Deutsch
Jahr: 2022
Genres: Actiondrama, Abenteuer, Fantasy, Horror, Übermäßige Gewaltdarstellung
Auflösung: 1920x1080
Format: MKV
Videocodec: H264
Farbtiefe: 8bit
Audiocodec: AAC
Publisher: WakanimDE, Crunchyroll
Hoster: DDownload | Uploaded

Mediainfo:
Code:
General
Format                                   : Matroska
Format version                           : Version 4
File size                                : 742 MiB
Duration                                 : 24 min 3 s
Overall bit rate                         : 4 311 kb/s
Encoded date                             : UTC 2022-01-09 21:16:20
Writing application                      : mkvmerge v59.0.0 ('Shining Star') 64-bit
Writing library                          : libebml v1.4.2 + libmatroska v1.6.4

Video
ID                                       : 1
Format                                   : AVC
Format/Info                              : Advanced Video Codec
Format profile                           : [email protected]
Format settings                          : 4 Ref Frames
Format settings, CABAC                   : No
Format settings, Reference frames        : 4 frames
Codec ID                                 : V_MPEG4/ISO/AVC
Duration                                 : 24 min 3 s
Bit rate                                 : 4 100 kb/s
Width                                    : 1 920 pixels
Height                                   : 1 080 pixels
Display aspect ratio                     : 16:9
Frame rate mode                          : Constant
Frame rate                               : 23.976 (24000/1001) FPS
Color space                              : YUV
Chroma subsampling                       : 4:2:0
Bit depth                                : 8 bits
Scan type                                : Progressive
Bits/(Pixel*Frame)                       : 0.082
Stream size                              : 714 MiB (96%)
Writing library                          : x264 core 163 r3059 b684ebe0
Encoding settings                        : cabac=0 / ref=4 / deblock=1:0:0 / analyse=0x1:0x131 / me=umh / subme=9 / psy=1 / psy_rd=1.00:0.00 / mixed_ref=1 / me_range=16 / chroma_me=1 / trellis=2 / 8x8dct=0 / cqm=0 / deadzone=21,11 / fast_pskip=1 / chroma_qp_offset=-2 / threads=18 / lookahead_threads=1 / sliced_threads=0 / nr=0 / decimate=1 / interlaced=0 / bluray_compat=0 / constrained_intra=0 / bframes=3 / b_pyramid=2 / b_adapt=2 / b_bias=0 / direct=3 / weightb=1 / open_gop=0 / weightp=2 / keyint=240 / keyint_min=24 / scenecut=40 / intra_refresh=0 / rc_lookahead=60 / rc=abr / mbtree=1 / bitrate=4100 / ratetol=1.0 / qcomp=0.60 / qpmin=0 / qpmax=69 / qpstep=4 / vbv_maxrate=20000 / vbv_bufsize=25000 / nal_hrd=none / filler=0 / ip_ratio=1.40 / aq=1:1.00
Default                                  : Yes
Forced                                   : No
Color range                              : Limited
Color primaries                          : BT.709
Transfer characteristics                 : BT.709
Matrix coefficients                      : BT.709

Audio
ID                                       : 2
Format                                   : AAC LC
Format/Info                              : Advanced Audio Codec Low Complexity
Codec ID                                 : A_AAC-2
Duration                                 : 24 min 3 s
Bit rate                                 : 160 kb/s
Channel(s)                               : 2 channels
Channel layout                           : L R
Sampling rate                            : 48.0 kHz
Frame rate                               : 46.875 FPS (1024 SPF)
Compression mode                         : Lossy
Delay relative to video                  : -21 ms
Stream size                              : 27.5 MiB (4%)
Title                                    : Stereo
Default                                  : Yes
Forced                                   : No

Text
ID                                       : 3
Format                                   : ASS
Codec ID                                 : S_TEXT/ASS
Codec ID/Info                            : Advanced Sub Station Alpha
Duration                                 : 23 min 17 s
Bit rate                                 : 89 b/s
Count of elements                        : 250
Compression mode                         : Lossless
Stream size                              : 15.2 KiB (0%)
Language                                 : German
Default                                  : Yes
Forced                                   : No
Status:
1080p:
BA452DA482.png

To view the content, you need to Sign In or Register.
 
Zuletzt bearbeitet:

Azugo

H͓̽u͓̽g͓̽o͓̽ ͓̽&͓̽ ͓̽A͓̽z͓̽u͓̽r͓̽a͓̽
Otaku Gott
Uploader
25 März 2020
3.189
24.361
113

Attack on Titan Final Season Part 2 | Shingeki no Kyojin: The Final Season (2022)



16103.webp



oie_bchbujbgr3vm-png.30595

anisearch.de schrieb:


oie_bchbujbgr3vm1-png.30596


Spieldauer: ~23min
Genre: Actiondrama
Nebengenres: Abenteuer, Fantasy, Horror, Übermäßige Gewaltdarstellung
Jahr: 2022
Sprache:
Japanisch.png
Japanisch
Untertitel:
Deutsch.png
Deutsch,
Englisch.png
Englisch
Größe pro Folge: ~705mb, ~1350mb
Episodenanzahl: 12/12
Format: MKV
Auflösung: 720p (16:9), 1080p (16:9)
Videocodec: H264 (AVC)
Audiocodec: AAC
Releasegruppe: Anime Otakus
Hoster:
rapidgator-gif.30742
Rapidgator,
ddownload-gif.30720
ddownload


oie_bchbujbgr3vm2-png.30597

Code:
[color=Turquoise]Format                                   : Matroska
Format version                           : Version 4
File size                                : 705 MiB
Duration                                 : 24 min 2 s
Overall bit rate                         : 4 098 kb/s
Encoded date                             : UTC 2022-01-09 23:35:20
Writing application                      : mkvmerge v64.0.0 ('Willows') 64-bit
Writing library                          : libebml v1.4.2 + libmatroska v1.6.4

Video
ID                                       : 1
Format                                   : AVC
Format/Info                              : Advanced Video Codec
Format profile                           : [email protected]
Format settings                          : CABAC / 6 Ref Frames
Format settings, CABAC                   : Yes
Format settings, Reference frames        : 6 frames
Codec ID                                 : V_MPEG4/ISO/AVC
Duration                                 : 23 min 55 s
Bit rate                                 : 4 000 kb/s
Width                                    : 1 280 pixels
Height                                   : 720 pixels
Display aspect ratio                     : 16:9
Frame rate mode                          : Constant
Frame rate                               : 23.976 (24000/1001) FPS
Color space                              : YUV
Chroma subsampling                       : 4:2:0
Bit depth                                : 8 bits
Scan type                                : Progressive
Bits/(Pixel*Frame)                       : 0.181
Stream size                              : 682 MiB (97%)
Writing library                          : x264 core 142
Encoding settings                        : cabac=1 / ref=6 / deblock=1:1:1 / analyse=0x3:0x113 / me=umh / subme=8 / psy=1 / psy_rd=0.40:0.00 / mixed_ref=1 / me_range=16 / chroma_me=1 / trellis=1 / 8x8dct=1 / cqm=0 / deadzone=21,11 / fast_pskip=1 / chroma_qp_offset=-2 / threads=10 / lookahead_threads=1 / sliced_threads=0 / nr=0 / decimate=1 / interlaced=0 / bluray_compat=0 / constrained_intra=0 / bframes=0 / weightp=2 / keyint=96 / keyint_min=48 / scenecut=40 / intra_refresh=0 / rc_lookahead=48 / rc=2pass / mbtree=1 / bitrate=4000 / ratetol=1.0 / qcomp=0.60 / qpmin=0 / qpmax=69 / qpstep=4 / cplxblur=20.0 / qblur=0.5 / vbv_maxrate=6000 / vbv_bufsize=9000 / nal_hrd=none / filler=0 / ip_ratio=1.40 / aq=1:0.60
Default                                  : Yes
Forced                                   : No

Audio
ID                                       : 2
Format                                   : AAC LC
Format/Info                              : Advanced Audio Codec Low Complexity
Codec ID                                 : A_AAC-2
Duration                                 : 23 min 55 s
Bit rate                                 : 128 kb/s
Channel(s)                               : 2 channels
Channel layout                           : L R
Sampling rate                            : 44.1 kHz
Frame rate                               : 43.066 FPS (1024 SPF)
Compression mode                         : Lossy
Stream size                              : 21.9 MiB (3%)
Language                                 : Japanese
Default                                  : Yes
Forced                                   : No

Text #1
ID                                       : 3
Format                                   : ASS
Codec ID                                 : S_TEXT/ASS
Codec ID/Info                            : Advanced Sub Station Alpha
Duration                                 : 23 min 24 s
Bit rate                                 : 78 b/s
Count of elements                        : 200
Compression mode                         : Lossless
Stream size                              : 13.4 KiB (0%)
Title                                    : English
Language                                 : English
Default                                  : No
Forced                                   : No

Text #2
ID                                       : 4
Format                                   : ASS
Codec ID                                 : S_TEXT/ASS
Codec ID/Info                            : Advanced Sub Station Alpha
Duration                                 : 23 min 17 s
Bit rate                                 : 104 b/s
Count of elements                        : 260
Compression mode                         : Lossless
Stream size                              : 17.8 KiB (0%)
Title                                    : German
Language                                 : German
Default                                  : Yes
Forced                                   : No

[/color]
Code:
[color=Turquoise]Format                                   : Matroska
Format version                           : Version 4
File size                                : 1.35 GiB
Duration                                 : 24 min 2 s
Overall bit rate                         : 8 062 kb/s
Encoded date                             : UTC 2022-01-09 23:35:26
Writing application                      : mkvmerge v64.0.0 ('Willows') 64-bit
Writing library                          : libebml v1.4.2 + libmatroska v1.6.4

Video
ID                                       : 1
Format                                   : AVC
Format/Info                              : Advanced Video Codec
Format profile                           : [email protected]
Format settings                          : CABAC / 4 Ref Frames
Format settings, CABAC                   : Yes
Format settings, Reference frames        : 4 frames
Codec ID                                 : V_MPEG4/ISO/AVC
Duration                                 : 23 min 55 s
Bit rate                                 : 8 000 kb/s
Width                                    : 1 920 pixels
Height                                   : 1 080 pixels
Display aspect ratio                     : 16:9
Frame rate mode                          : Constant
Frame rate                               : 23.976 (24000/1001) FPS
Color space                              : YUV
Chroma subsampling                       : 4:2:0
Bit depth                                : 8 bits
Scan type                                : Progressive
Bits/(Pixel*Frame)                       : 0.161
Stream size                              : 1.33 GiB (98%)
Writing library                          : x264 core 142
Encoding settings                        : cabac=1 / ref=4 / deblock=1:1:1 / analyse=0x3:0x113 / me=umh / subme=8 / psy=1 / psy_rd=0.40:0.00 / mixed_ref=1 / me_range=16 / chroma_me=1 / trellis=1 / 8x8dct=1 / cqm=0 / deadzone=21,11 / fast_pskip=1 / chroma_qp_offset=-2 / threads=12 / lookahead_threads=2 / sliced_threads=0 / nr=0 / decimate=1 / interlaced=0 / bluray_compat=0 / constrained_intra=0 / bframes=0 / weightp=2 / keyint=96 / keyint_min=48 / scenecut=40 / intra_refresh=0 / rc_lookahead=48 / rc=2pass / mbtree=1 / bitrate=8000 / ratetol=1.0 / qcomp=0.60 / qpmin=0 / qpmax=69 / qpstep=4 / cplxblur=20.0 / qblur=0.5 / vbv_maxrate=12000 / vbv_bufsize=18000 / nal_hrd=none / filler=0 / ip_ratio=1.40 / aq=1:0.60
Default                                  : Yes
Forced                                   : No

Audio
ID                                       : 2
Format                                   : AAC LC
Format/Info                              : Advanced Audio Codec Low Complexity
Codec ID                                 : A_AAC-2
Duration                                 : 23 min 55 s
Bit rate                                 : 128 kb/s
Channel(s)                               : 2 channels
Channel layout                           : L R
Sampling rate                            : 44.1 kHz
Frame rate                               : 43.066 FPS (1024 SPF)
Compression mode                         : Lossy
Stream size                              : 21.9 MiB (2%)
Language                                 : Japanese
Default                                  : Yes
Forced                                   : No

Text #1
ID                                       : 3
Format                                   : ASS
Codec ID                                 : S_TEXT/ASS
Codec ID/Info                            : Advanced Sub Station Alpha
Duration                                 : 23 min 24 s
Bit rate                                 : 78 b/s
Count of elements                        : 200
Compression mode                         : Lossless
Stream size                              : 13.4 KiB (0%)
Title                                    : English
Language                                 : English
Default                                  : No
Forced                                   : No

Text #2
ID                                       : 4
Format                                   : ASS
Codec ID                                 : S_TEXT/ASS
Codec ID/Info                            : Advanced Sub Station Alpha
Duration                                 : 23 min 17 s
Bit rate                                 : 104 b/s
Count of elements                        : 260
Compression mode                         : Lossless
Stream size                              : 17.8 KiB (0%)
Title                                    : German
Language                                 : German
Default                                  : Yes
Forced                                   : No


[/color]



oie_bchbujbgr3vm3-png.30598

cooltext396117611400625-png.30739

4ACF220637.png

cooltext3961176114006251-png.30741

B52E986B3A.png

To view the content, you need to Sign In or Register.

 
Zuletzt bearbeitet: