Welcome to our Community
Wanting to join the rest of our members? Feel free to sign up today.
Sign up

Attack on Titan: Final Season | Shingeki no Kyojin: The Final Season [Ger-Jap-Dub][Ger-Sub][720p][1080p][E-AC-3|DTS-HD][8bits|10bits][x264|x265][BluRay] - AO

Azugo

H͓̽u͓̽g͓̽o͓̽ ͓̽&͓̽ ͓̽A͓̽z͓̽u͓̽r͓̽a͓̽
Otaku Gott
Uploader
25 März 2020
3.480
32.331
118


Attack on Titan: Final Season | Shingeki no Kyojin: The Final Season



aots4-visual-scaled.jpeg



oie_bchbujbgr3vm-png.30595

anisearch.com schrieb:
In »Attack on Titan: Final Season«, der vierten und letzten Staffel der Anime-Adaption zu Hajime Isayamas gleichnamigem Manga, folgen wir Eren, Mikasa, Armin und dem Rest des Aufklärungstrupps ein letztes Mal auf ihren Abenteuern inner- und außerhalb der Mauern ihrer kleinen Welt. Nachdem sie unter Jubel und ermutigenden Rufen in ihre letzte Schlacht aufbrachen, um Mauer Maria und den Shiganshina-Distrikt von den Titanen zurückzuerobern, mussten sie es mit ganzen vier intelligenten Titanen aufnehmen – darunter auch der gefürchtete Biest-Titan … Die Schlacht war lang und bitter, doch am Ende konnte der Aufklärungstrupp einen Sieg erringen – einen Sieg für die Menschheit! Mauer Maria wurde geschlossen, Shiganshina ist wieder bewohnbar und die Macht des Kolossalen Titanen liegt nun in den Händen des Aufklärungstrupps!

Der Preis für diesen Sieg war jedoch hoch: Der Trupp wurde auf neun Mitglieder reduziert, Reiner und der Biest-Titan konnten entkommen und Levi, Hanji und Co. sahen sich mit einer grausamen Entscheidung konfrontiert: Wen sollte man mit dem Titanenserum retten – Erwin oder Armin? Auch die Antworten, die sie in Erens Keller fanden, machten ihr Schicksal nicht erträglicher, wissen sie doch nun, dass nicht etwa »nur ein paar Titanen« der Feind sind, sondern die ganze Welt und dass ihr wahrer Widersacher weit jenseits ihrer Mauern, auf der anderen Seite des Ozeans, Pläne gegen sie schmiedet …
Quelle: https://www.anisearch.de/anime/14484


oie_bchbujbgr3vm1-png.30596


Spieldauer: ~24min
Genre: Actiondrama
Nebengenres: Abenteuer, Fantasy, Horror, Mystery, Psychodrama, Übermäßige Gewaltdarstellung
Jahr: 2020
Sprache:
Deutsch.png
Deutsch,
Japanisch.png
Japanisch
Untertitel:
Deutsch.png
Deutsch
Größe pro Folge: ~1100mb, ~2580mb ~3090mb, ~2660mb
Episodenanzahl: 16/16
Format: MKV
Auflösung: 720p (16:9), 1080p (16:9)
Videocodec: H264 (AVC). H265 (HEVC)
Audiocodec: E-AC-3, DTS-HD
Releasegruppe: Anime Otakus
Hoster:
rapidgator-gif.30742
Rapidgator,
ddownload-gif.30720
ddownload


oie_bchbujbgr3vm2-png.30597

Rich (BBCode):
Format                                   : Matroska
Format version                           : Version 4
File size                                : 1.10 GiB
Duration                                 : 23 min 55 s
Overall bit rate                         : 6 573 kb/s
Encoded date                             : UTC 2022-02-07 00:55:04
Writing application                      : mkvmerge v65.0.0 ('Too Much') 64-bit
Writing library                          : libebml v1.4.2 + libmatroska v1.6.4
Release by                               : Anime Otakus
Version                                  : 1.2

Video
ID                                       : 1
Format                                   : AVC
Format/Info                              : Advanced Video Codec
Format profile                           : [email protected]
Format settings                          : CABAC / 8 Ref Frames
Format settings, CABAC                   : Yes
Format settings, Reference frames        : 8 frames
Codec ID                                 : V_MPEG4/ISO/AVC
Duration                                 : 23 min 55 s
Bit rate                                 : 5 162 kb/s
Width                                    : 1 280 pixels
Height                                   : 720 pixels
Display aspect ratio                     : 16:9
Frame rate mode                          : Constant
Frame rate                               : 23.976 (24000/1001) FPS
Color space                              : YUV
Chroma subsampling                       : 4:2:0
Bit depth                                : 8 bits
Scan type                                : Progressive
Bits/(Pixel*Frame)                       : 0.234
Stream size                              : 883 MiB (79%)
Language                                 : English
Default                                  : No
Forced                                   : No
Color range                              : Limited
Color primaries                          : BT.709
Transfer characteristics                 : BT.709
Matrix coefficients                      : BT.709

Audio #1
ID                                       : 4
Format                                   : E-AC-3
Format/Info                              : Enhanced AC-3
Commercial name                          : Dolby Digital Plus
Codec ID                                 : A_EAC3
Duration                                 : 23 min 55 s
Bit rate mode                            : Constant
Bit rate                                 : 640 kb/s
Channel(s)                               : 2 channels
Channel layout                           : L R
Sampling rate                            : 48.0 kHz
Frame rate                               : 31.250 FPS (1536 SPF)
Bit depth                                : 32 bits
Compression mode                         : Lossy
Delay relative to video                  : -5 ms
Stream size                              : 109 MiB (10%)
Title                                    : Stereo
Language                                 : German
Service kind                             : Complete Main
Default                                  : Yes
Forced                                   : No

Audio #2
ID                                       : 5
Format                                   : E-AC-3
Format/Info                              : Enhanced AC-3
Commercial name                          : Dolby Digital Plus
Codec ID                                 : A_EAC3
Duration                                 : 23 min 55 s
Bit rate mode                            : Constant
Bit rate                                 : 640 kb/s
Channel(s)                               : 2 channels
Channel layout                           : L R
Sampling rate                            : 48.0 kHz
Frame rate                               : 31.250 FPS (1536 SPF)
Bit depth                                : 32 bits
Compression mode                         : Lossy
Delay relative to video                  : -5 ms
Stream size                              : 109 MiB (10%)
Title                                    : Stereo
Language                                 : Japanese
Service kind                             : Complete Main
Default                                  : No
Forced                                   : No

Text #1
ID                                       : 2
Format                                   : PGS
Muxing mode                              : zlib
Codec ID                                 : S_HDMV/PGS
Codec ID/Info                            : Picture based subtitle format used on BDs/HD-DVDs
Title                                    : German Forced
Language                                 : German
Default                                  : Yes
Forced                                   : No

Text #2
ID                                       : 3
Format                                   : PGS
Muxing mode                              : zlib
Codec ID                                 : S_HDMV/PGS
Codec ID/Info                            : Picture based subtitle format used on BDs/HD-DVDs
Title                                    : German Full
Language                                 : German
Default                                  : No
Forced                                   : No

Menu
00:00:00.000                             : :Chapter 01
00:04:58.047                             : :Chapter 02
00:13:51.038                             : :Chapter 03
00:22:00.277                             : :Chapter 04
00:23:40.502                             : :Chapter 05

Rich (BBCode):
Format                                   : Matroska
Format version                           : Version 4
File size                                : 2.58 GiB
Duration                                 : 23 min 55 s
Overall bit rate                         : 15.4 Mb/s
Encoded date                             : UTC 2022-02-07 01:11:45
Writing application                      : mkvmerge v65.0.0 ('Too Much') 64-bit
Writing library                          : libebml v1.4.2 + libmatroska v1.6.4
Release by                               : Anime Otakus
Version                                  : 1.2

Video
ID                                       : 1
Format                                   : AVC
Format/Info                              : Advanced Video Codec
Format profile                           : [email protected]
Format settings                          : CABAC / 12 Ref Frames
Format settings, CABAC                   : Yes
Format settings, Reference frames        : 12 frames
Codec ID                                 : V_MPEG4/ISO/AVC
Duration                                 : 23 min 55 s
Bit rate                                 : 14.1 Mb/s
Width                                    : 1 920 pixels
Height                                   : 1 080 pixels
Display aspect ratio                     : 16:9
Frame rate mode                          : Constant
Frame rate                               : 23.976 (24000/1001) FPS
Color space                              : YUV
Chroma subsampling                       : 4:2:0
Bit depth                                : 8 bits
Scan type                                : Progressive
Bits/(Pixel*Frame)                       : 0.284
Stream size                              : 2.36 GiB (91%)
Language                                 : English
Default                                  : No
Forced                                   : No
Color range                              : Limited
Color primaries                          : BT.709
Transfer characteristics                 : BT.709
Matrix coefficients                      : BT.709

Audio #1
ID                                       : 4
Format                                   : E-AC-3
Format/Info                              : Enhanced AC-3
Commercial name                          : Dolby Digital Plus
Codec ID                                 : A_EAC3
Duration                                 : 23 min 55 s
Bit rate mode                            : Constant
Bit rate                                 : 640 kb/s
Channel(s)                               : 2 channels
Channel layout                           : L R
Sampling rate                            : 48.0 kHz
Frame rate                               : 31.250 FPS (1536 SPF)
Bit depth                                : 32 bits
Compression mode                         : Lossy
Delay relative to video                  : -5 ms
Stream size                              : 109 MiB (4%)
Title                                    : Stereo
Language                                 : German
Service kind                             : Complete Main
Default                                  : Yes
Forced                                   : No

Audio #2
ID                                       : 5
Format                                   : E-AC-3
Format/Info                              : Enhanced AC-3
Commercial name                          : Dolby Digital Plus
Codec ID                                 : A_EAC3
Duration                                 : 23 min 55 s
Bit rate mode                            : Constant
Bit rate                                 : 640 kb/s
Channel(s)                               : 2 channels
Channel layout                           : L R
Sampling rate                            : 48.0 kHz
Frame rate                               : 31.250 FPS (1536 SPF)
Bit depth                                : 32 bits
Compression mode                         : Lossy
Delay relative to video                  : -5 ms
Stream size                              : 109 MiB (4%)
Title                                    : Stereo
Language                                 : Japanese
Service kind                             : Complete Main
Default                                  : No
Forced                                   : No

Text #1
ID                                       : 2
Format                                   : PGS
Muxing mode                              : zlib
Codec ID                                 : S_HDMV/PGS
Codec ID/Info                            : Picture based subtitle format used on BDs/HD-DVDs
Duration                                 : 18 min 56 s
Bit rate                                 : 634 b/s
Count of elements                        : 6
Stream size                              : 88.0 KiB (0%)
Title                                    : German Forced
Language                                 : German
Default                                  : Yes
Forced                                   : No

Text #2
ID                                       : 3
Format                                   : PGS
Muxing mode                              : zlib
Codec ID                                 : S_HDMV/PGS
Codec ID/Info                            : Picture based subtitle format used on BDs/HD-DVDs
Duration                                 : 23 min 46 s
Bit rate                                 : 68.9 kb/s
Count of elements                        : 484
Stream size                              : 11.7 MiB (0%)
Title                                    : German Full
Language                                 : German
Default                                  : No
Forced                                   : No

Menu
00:00:00.000                             : :Chapter 01
00:04:58.047                             : :Chapter 02
00:13:51.038                             : :Chapter 03
00:22:00.277                             : :Chapter 04
00:23:40.502                             : :Chapter 05

Rich (BBCode):
Format                                   : Matroska
Format version                           : Version 4
File size                                : 3.09 GiB
Duration                                 : 23 min 55 s
Overall bit rate mode                    : Variable
Overall bit rate                         : 18.5 Mb/s
Encoded date                             : UTC 2022-02-07 00:54:32
Writing application                      : mkvmerge v65.0.0 ('Too Much') 64-bit
Writing library                          : libebml v1.4.2 + libmatroska v1.6.4
Release by                               : Anime Otakus
Version                                  : 1.2

Video
ID                                       : 1
Format                                   : AVC
Format/Info                              : Advanced Video Codec
Format profile                           : [email protected]
Format settings                          : CABAC / 12 Ref Frames
Format settings, CABAC                   : Yes
Format settings, Reference frames        : 12 frames
Codec ID                                 : V_MPEG4/ISO/AVC
Duration                                 : 23 min 55 s
Width                                    : 1 920 pixels
Height                                   : 1 080 pixels
Display aspect ratio                     : 16:9
Frame rate mode                          : Constant
Frame rate                               : 23.976 (24000/1001) FPS
Color space                              : YUV
Chroma subsampling                       : 4:2:0
Bit depth                                : 8 bits
Scan type                                : Progressive
Language                                 : English
Default                                  : No
Forced                                   : No
Color range                              : Limited
Color primaries                          : BT.709
Transfer characteristics                 : BT.709
Matrix coefficients                      : BT.709

Audio #1
ID                                       : 4
Format                                   : DTS XLL
Format/Info                              : Digital Theater Systems
Commercial name                          : DTS-HD Master Audio
Codec ID                                 : A_DTS
Duration                                 : 23 min 55 s
Bit rate mode                            : Variable
Channel(s)                               : 2 channels
Channel layout                           : L R
Sampling rate                            : 48.0 kHz
Frame rate                               : 93.750 FPS (512 SPF)
Bit depth                                : 24 bits
Compression mode                         : Lossless
Title                                    : Stereo
Language                                 : German
Default                                  : Yes
Forced                                   : No

Audio #2
ID                                       : 5
Format                                   : DTS XLL
Format/Info                              : Digital Theater Systems
Commercial name                          : DTS-HD Master Audio
Codec ID                                 : A_DTS
Duration                                 : 23 min 55 s
Bit rate mode                            : Variable
Channel(s)                               : 2 channels
Channel layout                           : L R
Sampling rate                            : 48.0 kHz
Frame rate                               : 93.750 FPS (512 SPF)
Bit depth                                : 24 bits
Compression mode                         : Lossless
Title                                    : Stereo
Language                                 : Japanese
Default                                  : No
Forced                                   : No

Text #1
ID                                       : 2
Format                                   : PGS
Muxing mode                              : zlib
Codec ID                                 : S_HDMV/PGS
Codec ID/Info                            : Picture based subtitle format used on BDs/HD-DVDs
Title                                    : German Forced
Language                                 : German
Default                                  : Yes
Forced                                   : No

Text #2
ID                                       : 3
Format                                   : PGS
Muxing mode                              : zlib
Codec ID                                 : S_HDMV/PGS
Codec ID/Info                            : Picture based subtitle format used on BDs/HD-DVDs
Title                                    : German Full
Language                                 : German
Default                                  : No
Forced                                   : No

Menu
00:00:00.000                             : :Chapter 01
00:04:58.047                             : :Chapter 02
00:13:51.038                             : :Chapter 03
00:22:00.277                             : :Chapter 04
00:23:40.502                             : :Chapter 05

Rich (BBCode):
Format                                   : Matroska
Format version                           : Version 4
File size                                : 2.66 GiB
Duration                                 : 23 min 55 s
Overall bit rate mode                    : Variable
Overall bit rate                         : 15.9 Mb/s
Encoded date                             : UTC 2022-02-07 00:54:48
Writing application                      : mkvmerge v65.0.0 ('Too Much') 64-bit
Writing library                          : libebml v1.4.2 + libmatroska v1.6.4
Release by                               : Anime Otakus
Version                                  : 1.2

Video
ID                                       : 1
Format                                   : HEVC
Format/Info                              : High Efficiency Video Coding
Format profile                           : Main [email protected]@Main
Codec ID                                 : V_MPEGH/ISO/HEVC
Duration                                 : 23 min 55 s
Width                                    : 1 920 pixels
Height                                   : 1 080 pixels
Display aspect ratio                     : 16:9
Frame rate mode                          : Constant
Frame rate                               : 23.976 (24000/1001) FPS
Color space                              : YUV
Chroma subsampling                       : 4:2:0 (Type 0)
Bit depth                                : 10 bits
Language                                 : English
Default                                  : No
Forced                                   : No
Color range                              : Limited
Color primaries                          : BT.709
Transfer characteristics                 : BT.709
Matrix coefficients                      : BT.709

Audio #1
ID                                       : 4
Format                                   : DTS XLL
Format/Info                              : Digital Theater Systems
Commercial name                          : DTS-HD Master Audio
Codec ID                                 : A_DTS
Duration                                 : 23 min 55 s
Bit rate mode                            : Variable
Channel(s)                               : 2 channels
Channel layout                           : L R
Sampling rate                            : 48.0 kHz
Frame rate                               : 93.750 FPS (512 SPF)
Bit depth                                : 24 bits
Compression mode                         : Lossless
Title                                    : Stereo
Language                                 : German
Default                                  : Yes
Forced                                   : No

Audio #2
ID                                       : 5
Format                                   : DTS XLL
Format/Info                              : Digital Theater Systems
Commercial name                          : DTS-HD Master Audio
Codec ID                                 : A_DTS
Duration                                 : 23 min 55 s
Bit rate mode                            : Variable
Channel(s)                               : 2 channels
Channel layout                           : L R
Sampling rate                            : 48.0 kHz
Frame rate                               : 93.750 FPS (512 SPF)
Bit depth                                : 24 bits
Compression mode                         : Lossless
Title                                    : Stereo
Language                                 : Japanese
Default                                  : No
Forced                                   : No

Text #1
ID                                       : 2
Format                                   : PGS
Muxing mode                              : zlib
Codec ID                                 : S_HDMV/PGS
Codec ID/Info                            : Picture based subtitle format used on BDs/HD-DVDs
Title                                    : German Forced
Language                                 : German
Default                                  : Yes
Forced                                   : No

Text #2
ID                                       : 3
Format                                   : PGS
Muxing mode                              : zlib
Codec ID                                 : S_HDMV/PGS
Codec ID/Info                            : Picture based subtitle format used on BDs/HD-DVDs
Title                                    : German Full
Language                                 : German
Default                                  : No
Forced                                   : No

Menu
00:00:00.000                             : :Chapter 01
00:04:58.047                             : :Chapter 02
00:13:51.038                             : :Chapter 03
00:22:00.277                             : :Chapter 04
00:23:40.502                             : :Chapter 05





oie_bchbujbgr3vm3-png.30598

cooltext396117611400625-png.30739

720p EAC3
5A695EAF70.png

1080p EAC3
D0CAAEDE54.png

1080p DTS-HD
A487CFEA2E.png

x265 1080p DTS-HD
33BE2886A5.png


cooltext3961176114006251-png.30741

720p EAC3
DF89E17A26.png

1080p EAC3
60F1D8981A.png

1080p DTS-HD
630CAFAE15.png

x265 1080p DTS-HD
AFADA924ED.png


To view the content, you need to Sign In or Register.
 
Zuletzt bearbeitet: