Wir verwenden Cookies, um deinen Aufenthalt auf Animes.so möglichst angenehm gestalten zu können. Mehr erfahren

Banana Fish [Laufend][Jap-Dub][Ger-Eng-Sub][720p|1080p][WebRip] - Amazon

Dieses Thema im Forum "Serien (GerSub)" wurde erstellt von Ta@, 8. Juli 2018.

  1. Ta@

    Ta@ Treues Mitglied Seelenverkäufer

    Registriert seit:
    7. Juli 2016
    Beiträge:
    399
    Zustimmungen:
    10.378
    Banana Fish
    [​IMG]
    [​IMG]
    Anfang der siebziger Jahre starben mehrere im Vietnam stationierte Amerikaner auf mysteriöse Weise. Griffin Callenreese tötete in einem Amoklauf mehrere seiner Kameraden und murmelte bis zu seinem Zusammenbruch nur noch die Worte Banana Fish. Sein jüngerer Bruder Aslan wiederum hat sich in den achtziger Jahren auf den Straßen von New York als Ash Lynx, Anführer einer Straßengang, behauptet. Nach einer unbarmherzigen Kindheit ist der schöne und charismatische Heranwachsende nun ebenso clever wie tödlich. Zur Macht verhalf ihm auch seine Verbindung zum Mafiaboss Dino Golzine, der Ash Lynx einst entführte und zur Prostitution zwang. Als eines Tages ein unbekannter Mann Ash eine Droge mit dem Namen Banana Fish in die Hand drückt und kurze Zeit später verstirbt, rücken die mysteriösen Selbstmorde, die sich zuletzt gehäuft haben und das Geheimnis um seinen Bruder mehr und mehr in den Fokus. Auf die Ereignisse aufmerksam geworden reist auch ein japanischer Journalist in die Stadt, an seiner Seite sein Sohn Eji Okumura. Schnell erkennen sie die Verbindungen der neuesten Vorfälle zu Ash Lynx.

    Folgen: 19/24
    Größe pro Folge: ~190 MB/~385 MB
    Folgendauer: ~23 Min
    Releaser: Ta@
    Art: Lizenzrelease
    Sprache: Japanisch
    Untertitel: Deutsch, Englisch
    Genres: Action, Drama, Psychodrama, Yaoi, Übermäßige Gewaltdarstellung
    Jahr: 2018
    Auflösung: 1280x720/1920x1080
    Format: MKV
    Quelle: WebRip
    Videocodec: x264
    Farbtiefe: 8Bit
    Audiocodec: AC3
    Hoster: Share-Online

    [​IMG]
    Code:
    General Complete name : [Ta@]Banana_Fish_01_[Web,720p,AC3].mkv Format : Matroska Format version : Version 4 / Version 2 File size : 188 MiB Duration : 22 min 54 s Overall bit rate : 1 145 kb/s Encoded date : UTC 2018-07-05 17:59:33 Writing application : mkvmerge v10.0.0 ('To Drown In You') 64bit Writing library : libebml v1.3.4 + libmatroska v1.4.5 Attachments : lt.ttf / ltf.ttf / OpenSans-Semibold.ttf Video ID : 1 Format : AVC Format/Info : Advanced Video Codec Format profile : High@L3.1 Format settings : CABAC / 5 Ref Frames Format settings, CABAC : Yes Format settings, RefFrames : 5 frames Codec ID : V_MPEG4/ISO/AVC Duration : 22 min 54 s Bit rate : 917 kb/s Width : 1 280 pixels Height : 720 pixels Display aspect ratio : 16:9 Frame rate mode : Constant Frame rate : 23.976 (24000/1001) FPS Color space : YUV Chroma subsampling : 4:2:0 Bit depth : 8 bits Scan type : Progressive Bits/(Pixel*Frame) : 0.042 Stream size : 150 MiB (80%) Default : Yes Forced : No Color range : Limited Color primaries : BT.709 Transfer characteristics : BT.709 Matrix coefficients : BT.709 Audio ID : 2 Format : E-AC-3 Format/Info : Enhanced Audio Coding 3 Codec ID : A_EAC3 Duration : 22 min 54 s Bit rate mode : Constant Bit rate : 224 kb/s Channel(s) : 2 channels Channel positions : Front: L R Sampling rate : 48.0 kHz Frame rate : 187.500 FPS (256 SPF) Compression mode : Lossy Stream size : 36.7 MiB (20%) Service kind : Complete Main Default : Yes Forced : No Text #1 ID : 3 Format : ASS Codec ID : S_TEXT/ASS Codec ID/Info : Advanced Sub Station Alpha Duration : 22 min 25 s Bit rate : 135 b/s Count of elements : 338 Compression mode : Lossless Stream size : 22.3 KiB (0%) Language : German Default : Yes Forced : No Text #2 ID : 4 Format : ASS Codec ID : S_TEXT/ASS Codec ID/Info : Advanced Sub Station Alpha Duration : 22 min 10 s Bit rate : 109 b/s Count of elements : 377 Compression mode : Lossless Stream size : 17.8 KiB (0%) Language : English Default : No Forced : No ​
    Code:
    General Complete name : [Ta@]Banana_Fish_01_[Web,1080p,AC3].mkv Format : Matroska Format version : Version 4 / Version 2 File size : 384 MiB Duration : 22 min 54 s Overall bit rate : 2 344 kb/s Encoded date : UTC 2018-07-05 17:59:48 Writing application : mkvmerge v10.0.0 ('To Drown In You') 64bit Writing library : libebml v1.3.4 + libmatroska v1.4.5 Attachments : lt.ttf / ltf.ttf / OpenSans-Semibold.ttf Video ID : 1 Format : AVC Format/Info : Advanced Video Codec Format profile : High@L4 Format settings : CABAC / 4 Ref Frames Format settings, CABAC : Yes Format settings, RefFrames : 4 frames Codec ID : V_MPEG4/ISO/AVC Duration : 22 min 54 s Bit rate : 2 115 kb/s Width : 1 920 pixels Height : 1 080 pixels Display aspect ratio : 16:9 Frame rate mode : Constant Frame rate : 23.976 (24000/1001) FPS Color space : YUV Chroma subsampling : 4:2:0 Bit depth : 8 bits Scan type : Progressive Bits/(Pixel*Frame) : 0.043 Stream size : 347 MiB (90%) Default : Yes Forced : No Color range : Limited Color primaries : BT.709 Transfer characteristics : BT.709 Matrix coefficients : BT.709 Audio ID : 2 Format : E-AC-3 Format/Info : Enhanced Audio Coding 3 Codec ID : A_EAC3 Duration : 22 min 54 s Bit rate mode : Constant Bit rate : 224 kb/s Channel(s) : 2 channels Channel positions : Front: L R Sampling rate : 48.0 kHz Frame rate : 187.500 FPS (256 SPF) Compression mode : Lossy Stream size : 36.7 MiB (10%) Service kind : Complete Main Default : No Forced : No Text #1 ID : 3 Format : ASS Codec ID : S_TEXT/ASS Codec ID/Info : Advanced Sub Station Alpha Duration : 22 min 25 s Bit rate : 135 b/s Count of elements : 338 Compression mode : Lossless Stream size : 22.3 KiB (0%) Language : German Default : Yes Forced : No Text #2 ID : 4 Format : ASS Codec ID : S_TEXT/ASS Codec ID/Info : Advanced Sub Station Alpha Duration : 22 min 10 s Bit rate : 109 b/s Count of elements : 377 Compression mode : Lossless Stream size : 17.8 KiB (0%) Language : English Default : No Forced : No ​

    Anmerkung:
    Ich habe das Timing verbessert und die Font gefixt.

    720p:[​IMG]1080p:[​IMG]

    Geschützter Bereich
    Registriere dich oder logge dich ein, um den Inhalt sehen zu können
     
    Zuletzt bearbeitet: 15. Nov. 2018 um 20:42 Uhr
    greatcwwc, Vinh, Bloody Shion und 29 anderen gefällt das.
  2. Ta@

    Ta@ Treues Mitglied Seelenverkäufer

    Registriert seit:
    7. Juli 2016
    Beiträge:
    399
    Zustimmungen:
    10.378
    ~Folge 19 online~
     
    farmerjoe gefällt das.