Welcome to our Community
Wanting to join the rest of our members? Feel free to sign up today.
Sign up

Belle [Ger-Jap-Dub][Ger-Sub][2160p][DTS-HD][10bits][HDR][x265|AV1][BluRay] - AO

Kleinmike

Uploader
Otaku König
21 März 2021
205
2.692
93



Belle




GxNJMvM.png



SRXGgee.png
anisearch.com schrieb:
Die 17-jährige Suzu lebt mit ihrem Vater allein auf dem Land, nachdem ihre Mutter vor Jahren gestorben ist. Sie zieht sich immer mehr zurück und meidet sowohl den Kontakt zu ihrem eigenen Vater als auch zu ihren Klassenkameraden. Erst als eine Freundin sie dazu überredet, in die virtuelle Welt »U« einzutauchen, in der jeder neu beginnen kann, ändert sich ihr Leben. Sie wird lebensfroher, öffnet sich und kann endlich wieder ihre Liebe zur Musik ausleben. Unter dem Namen Belle wird sie mit ihrem U-Avatar weltberühmt.

Doch genau wie die reale Welt hat auch die virtuelle Welt ihre Schattenseiten. Als ein User, der bei allen nur als »das Biest« oder »der Drache« bekannt ist, mitten in eines ihrer Konzerte platzt, muss sie mit ansehen, wie er von der angeblichen Sicherheitsabteilung von »U« gejagt wird. Er kann fliehen, doch Suzu ist fasziniert von ihm und möchte ihm unbedingt helfen. So macht sie sich auf die Suche nach ihm …

Anmerkung:
In »Belle« werden Themen wie der kritische Umgang mit den sozialen Medien, Mobbing, Ausgrenzung und persönliches Wachstum angesprochen.
Quelle: https://www.anisearch.de/anime/7654



t3RZ5BD.png


Spieldauer: ~120min
Genre: Drama
Nebengenres: Action
Jahr: 2022
Sprache:
Deutsch.png
Deutsch,
Japanisch.png
Japanisch
Untertitel:
Deutsch.png
Deutsch
Größe: ~18.4GiB, ~18.3GiB
Format: MKV
Auflösung: 2160p (16:9)
Videocodec: H265 (HEVC), AV1 (AOM)
Audiocodec: DTS-HD
Releasegruppe: Anime Otakus
Hoster:
rapidgator-gif.30742
Rapidgator,
ddownload-gif.30720
ddownload


QTQOKDS.png

Code:
[color=Turquoise]Format                                   : Matroska
Format version                           : Version 4
File size                                : 18.4 GiB
Duration                                 : 2 h 1 min
Overall bit rate mode                    : Variable
Overall bit rate                         : 21.7 Mb/s
Encoded date                             : UTC 2022-08-29 14:16:01
Writing application                      : mkvmerge v70.0.0 ('Caught A Lite Sneeze') 64-bit
Writing library                          : libebml v1.4.2 + libmatroska v1.6.4
Released by                              : Anime Otakus
Version                                  : 1.2

Video
ID                                       : 1
Format                                   : HEVC
Format/Info                              : High Efficiency Video Coding
Format profile                           : Main [email protected]@Main
HDR format                               : Dolby Vision, Version 1.0, dvhe.07.06, BL+EL+RPU, Blu-ray compatible / SMPTE ST 2086, HDR10 compatible
Codec ID                                 : V_MPEGH/ISO/HEVC
Duration                                 : 2 h 1 min
Bit rate                                 : 15.5 Mb/s
Width                                    : 3 840 pixels
Height                                   : 2 160 pixels
Display aspect ratio                     : 16:9
Frame rate mode                          : Constant
Frame rate                               : 23.976 (24000/1001) FPS
Color space                              : YUV
Chroma subsampling                       : 4:2:0 (Type 2)
Bit depth                                : 10 bits
Bits/(Pixel*Frame)                       : 0.078
Stream size                              : 13.2 GiB (72%)
Language                                 : English
Default                                  : No
Forced                                   : No
Color range                              : Limited
Color primaries                          : BT.2020
Transfer characteristics                 : PQ
Matrix coefficients                      : BT.2020 non-constant
Mastering display color primaries        : BT.2020
Mastering display luminance              : min: 0.0001 cd/m2, max: 1000 cd/m2

Audio #1
ID                                       : 2
Format                                   : DTS XLL
Format/Info                              : Digital Theater Systems
Commercial name                          : DTS-HD Master Audio
Codec ID                                 : A_DTS
Duration                                 : 2 h 1 min
Bit rate mode                            : Variable
Bit rate                                 : 1 991 kb/s
Channel(s)                               : 8 channels
Channel layout                           : C L R LFE Lb Rb Lss Rss
Sampling rate                            : 48.0 kHz
Frame rate                               : 93.750 FPS (512 SPF)
Bit depth                                : 16 bits
Compression mode                         : Lossless
Stream size                              : 1.69 GiB (9%)
Title                                    : Surround 7.1
Language                                 : German
Default                                  : Yes
Forced                                   : No

Audio #2
ID                                       : 3
Format                                   : MLP FBA 16-ch
Format/Info                              : Meridian Lossless Packing FBA with 16-channel presentation
Commercial name                          : Dolby TrueHD with Dolby Atmos
Codec ID                                 : A_TRUEHD
Duration                                 : 2 h 1 min
Bit rate mode                            : Variable
Bit rate                                 : 4 117 kb/s
Maximum bit rate                         : 7 542 kb/s
Channel(s)                               : 8 channels
Channel layout                           : L R C LFE Ls Rs Lb Rb
Sampling rate                            : 48.0 kHz
Frame rate                               : 1 200.000 FPS (40 SPF)
Bit depth                                : 24 bits
Compression mode                         : Lossless
Stream size                              : 3.49 GiB (19%)
Title                                    : Surround 7.1
Language                                 : Japanese
Default                                  : No
Forced                                   : No
Number of dynamic objects                : 11
Bed channel count                        : 1 channel
Bed channel configuration                : LFE

Text #1
ID                                       : 4
Format                                   : PGS
Muxing mode                              : zlib
Codec ID                                 : S_HDMV/PGS
Codec ID/Info                            : Picture based subtitle format used on BDs/HD-DVDs
Duration                                 : 2 h 1 min
Bit rate                                 : 28.0 kb/s
Count of elements                        : 2788
Stream size                              : 24.3 MiB (0%)
Title                                    : German Full
Language                                 : German
Default                                  : Yes
Forced                                   : No

Text #2
ID                                       : 5
Format                                   : PGS
Muxing mode                              : zlib
Codec ID                                 : S_HDMV/PGS
Codec ID/Info                            : Picture based subtitle format used on BDs/HD-DVDs
Duration                                 : 2 h 1 min
Bit rate                                 : 888 b/s
Count of elements                        : 74
Stream size                              : 788 KiB (0%)
Title                                    : Getman Force
Language                                 : German
Default                                  : No
Forced                                   : No

Menu
00:00:00.000                             : :Chapter 01
00:04:27.642                             : :Chapter 02
00:12:19.238                             : :Chapter 03
00:18:08.712                             : :Chapter 04
00:21:03.303                             : :Chapter 05
00:27:12.547                             : :Chapter 06
00:34:39.452                             : :Chapter 07
00:42:34.969                             : :Chapter 08
00:47:45.320                             : :Chapter 09
00:56:26.800                             : :Chapter 10
01:10:22.218                             : :Chapter 11
01:16:41.680                             : :Chapter 12
01:29:23.816                             : :Chapter 13
01:43:50.224                             : :Chapter 14
01:46:00.062                             : :Chapter 15
01:54:41.416                             : :Chapter 16

[/color]
Code:
[color=Turquoise]Format                                   : Matroska
Format version                           : Version 4
File size                                : 18.3 GiB
Duration                                 : 2 h 1 min
Overall bit rate mode                    : Variable
Overall bit rate                         : 21.6 Mb/s
Encoded date                             : UTC 2022-08-30 15:24:12
Writing application                      : mkvmerge v68.0.0 ('The Curtain') 64-bit
Writing library                          : libebml v1.4.2 + libmatroska v1.6.4 / Lavf59.23.100
Released by                              : Anime Otakus
Version                                  : 1.1

Video
ID                                       : 1
Format                                   : AV1
Format/Info                              : AOMedia Video 1
Format profile                           : [email protected]
HDR format                               : SMPTE ST 2086, HDR10 compatible
Codec ID                                 : V_AV1
Duration                                 : 2 h 1 min
Bit rate                                 : 15.4 Mb/s
Width                                    : 3 840 pixels
Height                                   : 2 160 pixels
Display aspect ratio                     : 16:9
Frame rate mode                          : Constant
Frame rate                               : 23.976 (24000/1001) FPS
Color space                              : YUV
Chroma subsampling                       : 4:2:0
Bit depth                                : 10 bits
Bits/(Pixel*Frame)                       : 0.077
Stream size                              : 13.0 GiB (71%)
Default                                  : No
Forced                                   : No
Color range                              : Limited
Color primaries                          : BT.2020
Transfer characteristics                 : PQ
Matrix coefficients                      : BT.2020 non-constant
Mastering display color primaries        : R: x=0.708000 y=0.292000, G: x=0.170000 y=0.797000, B: x=0.046000 y=0.131000, White point: x=0.329000 y=0.312700
Mastering display luminance              : min: 0.0001 cd/m2, max: 1000 cd/m2
Maximum Content Light Level              : 1000
Maximum Frame-Average Light Level        : 400

Audio #1
ID                                       : 2
Format                                   : DTS XLL
Format/Info                              : Digital Theater Systems
Commercial name                          : DTS-HD Master Audio
Codec ID                                 : A_DTS
Duration                                 : 2 h 1 min
Bit rate mode                            : Variable
Bit rate                                 : 1 991 kb/s
Channel(s)                               : 8 channels
Channel layout                           : C L R LFE Lb Rb Lss Rss
Sampling rate                            : 48.0 kHz
Frame rate                               : 93.750 FPS (512 SPF)
Bit depth                                : 16 bits
Compression mode                         : Lossless
Stream size                              : 1.69 GiB (9%)
Language                                 : German
Default                                  : Yes
Forced                                   : No

Audio #2
ID                                       : 3
Format                                   : MLP FBA 16-ch
Format/Info                              : Meridian Lossless Packing FBA with 16-channel presentation
Commercial name                          : Dolby TrueHD with Dolby Atmos
Codec ID                                 : A_TRUEHD
Duration                                 : 2 h 1 min
Bit rate mode                            : Variable
Bit rate                                 : 4 117 kb/s
Maximum bit rate                         : 7 542 kb/s
Channel(s)                               : 8 channels
Channel layout                           : L R C LFE Ls Rs Lb Rb
Sampling rate                            : 48.0 kHz
Frame rate                               : 1 200.000 FPS (40 SPF)
Bit depth                                : 24 bits
Compression mode                         : Lossless
Stream size                              : 3.49 GiB (19%)
Language                                 : Japanese
Default                                  : No
Forced                                   : No
Number of dynamic objects                : 11
Bed channel count                        : 1 channel
Bed channel configuration                : LFE

Text #1
ID                                       : 4
Format                                   : PGS
Muxing mode                              : zlib
Codec ID                                 : S_HDMV/PGS
Codec ID/Info                            : Picture based subtitle format used on BDs/HD-DVDs
Duration                                 : 2 h 1 min
Bit rate                                 : 28.0 kb/s
Count of elements                        : 2788
Stream size                              : 24.3 MiB (0%)
Title                                    : German Full
Language                                 : German
Default                                  : No
Forced                                   : No

Text #2
ID                                       : 5
Format                                   : PGS
Muxing mode                              : zlib
Codec ID                                 : S_HDMV/PGS
Codec ID/Info                            : Picture based subtitle format used on BDs/HD-DVDs
Duration                                 : 2 h 1 min
Bit rate                                 : 888 b/s
Count of elements                        : 74
Stream size                              : 788 KiB (0%)
Title                                    : German Forced
Language                                 : German
Default                                  : Yes
Forced                                   : No

Menu
00:00:00.000                             : 00:00:00.000
00:04:27.642                             : 00:04:27.642
00:12:19.238                             : 00:12:19.238
00:18:08.712                             : 00:18:08.712
00:21:03.303                             : 00:21:03.303
00:27:12.547                             : 00:27:12.547
00:34:39.452                             : 00:34:39.452
00:42:34.969                             : 00:42:34.969
00:47:45.320                             : 00:47:45.320
00:56:26.800                             : 00:56:26.800
01:10:22.218                             : 01:10:22.218
01:16:41.680                             : 01:16:41.680
01:29:23.816                             : 01:29:23.816
01:43:50.224                             : 01:43:50.224
01:46:00.062                             : 01:46:00.062
01:54:41.416                             : 01:54:41.416

[/color]




p6tlRgE.png

fqfOvST.png

x265 2160p DTS-HD
309BE23E54.png

AV1 2160p DTS-HD
9F8A2FB3BC.png


OQ7Exm0.png

x265 2160p DTS-HD
60527D9EBE.png

AV1 2160p DTS-HD
1CBB02985C.png


To view the content, you need to Sign In or Register.

 
Zuletzt bearbeitet: