Wir verwenden Cookies, um deinen Aufenthalt auf Animes.so möglichst angenehm gestalten zu können. Mehr erfahren

Bikini Warriors + OVA [Ger-Jap-Dub][Ger-Sub][MP3|AC-3|DTS-HD][408p|720p|1080p][BluRay] - AST4u

Dieses Thema im Forum "Serien (GerDub)" wurde erstellt von Ta@, 8. Nov. 2018.

  1. Ta@

    Ta@ Treues Mitglied Seelenverkäufer

    Registriert seit:
    7. Juli 2016
    Beiträge:
    399
    Zustimmungen:
    10.380
    Bikini Warriors


    [​IMG]
    [​IMG]

    In einem Fantasiereich versuchen vier mutige, sexy Frauen in ihren freizügigen Bikinis, pardon Rüstungen, die Welt mit vollem Körpereinsatz vor der Zerstörung zu bewahren, weswegen sie sich „Heldinnen“ nennen. Zu ihnen gehören ein Paladin, eine Magierin, eine Elfe sowie die Tochter eines legendären Kriegers, der das Reich in der Vergangenheit einmal gerettet hat. Doch leider werden ihre offenherzigen Dienste schlecht bezahlt und auch beim Handeln mit den Dorfbewohnern müssen sie oft ihr letztes Höschen hergeben. Doch davon lassen sie sich nicht entmutigen ...

    Folgen: 12/12 + OVAs 4/4
    Größe pro Folge: ~50 MB/~100 MB/~210 MB/~350 MB
    Folgendauer: ~4 Min
    Releaser: AST4u
    Art: Lizenzrelease
    Sprache: Japanisch, Deutsch
    Untertitel: Deutsch
    Jahr: 2015
    Genres: Abenteuer, Action, Ecchi, Fantasy, Komödie
    Auflösung: 720x408/1280x720/1920x1080
    Format: AVI/MKV
    Quelle: BluRay
    Videocodec: x264
    Farbtiefe: 8Bit
    Audiocodec: MP3/AC3/DTS
    Publisher: KAZÉ Anime
    Hoster: Share-Online

    [​IMG]
    Code:
    General Complete name : Bikini.Warriors.Ep.01.German.DL.MP3.BluRay.Xvid.AST4u.avi Format : Matroska Format version : Version 4 File size : 54.3 MiB Duration : 4 min 0 s Overall bit rate : 1 894 kb/s Encoded date : UTC 2018-11-08 16:22:33 Writing application : mkvmerge v8.1.0 ('Psychedelic Postcard') 32bit Writing library : libebml v1.3.1 + libmatroska v1.4.2 FileExtension_Invalid : mkv mk3d mka mks Video ID : 3 Format : MPEG-4 Visual Format profile : Advanced Simple@L5 Format settings : BVOP2 Format settings, BVOP : 2 Format settings, QPel : No Format settings, GMC : No warppoints Format settings, Matrix : Default (MPEG) Codec ID : V_MS/VFW/FOURCC / XVID Codec ID/Hint : XviD Duration : 4 min 0 s Bit rate : 1 496 kb/s Width : 720 pixels Height : 408 pixels Display aspect ratio : 16:9 Frame rate mode : Constant Frame rate : 23.976 (24000/1001) FPS Color space : YUV Chroma subsampling : 4:2:0 Bit depth : 8 bits Scan type : Progressive Compression mode : Lossy Bits/(Pixel*Frame) : 0.212 Stream size : 42.9 MiB (79%) Writing library : XviD 67 Default : Yes Forced : No Audio #1 ID : 4 Format : MPEG Audio Format version : Version 1 Format profile : Layer 3 Format settings : Joint stereo / MS Stereo Codec ID : A_MPEG/L3 Codec ID/Hint : MP3 Duration : 4 min 0 s Bit rate mode : Constant Bit rate : 192 kb/s Channel(s) : 2 channels Sampling rate : 48.0 kHz Frame rate : 41.667 FPS (1152 SPF) Compression mode : Lossy Stream size : 5.50 MiB (10%) Writing library : LAME3.99r Encoding settings : -m j -V 4 -q 2 -lowpass 18.6 -b 192 Language : Japanese Default : No Forced : No Audio #2 ID : 5 Format : MPEG Audio Format version : Version 1 Format profile : Layer 3 Format settings : Joint stereo Codec ID : A_MPEG/L3 Codec ID/Hint : MP3 Duration : 4 min 0 s Bit rate mode : Constant Bit rate : 192 kb/s Channel(s) : 2 channels Sampling rate : 48.0 kHz Frame rate : 41.667 FPS (1152 SPF) Compression mode : Lossy Stream size : 5.50 MiB (10%) Writing library : LAME3.99r Encoding settings : -m j -V 4 -q 2 -lowpass 18.6 -b 192 Language : German Default : Yes Forced : No Text #1 ID : 1 Format : PGS Muxing mode : zlib Codec ID : S_HDMV/PGS Codec ID/Info : Picture based subtitle format used on BDs/HD-DVDs Duration : 3 min 2 s Bit rate : 14.9 kb/s Count of elements : 108 Stream size : 330 KiB (1%) Language : German Default : Yes Forced : No Text #2 ID : 2 Format : PGS Muxing mode : zlib Codec ID : S_HDMV/PGS Codec ID/Info : Picture based subtitle format used on BDs/HD-DVDs Duration : 2 s 336 ms Bit rate : 28.1 kb/s Count of elements : 2 Stream size : 8.00 KiB (0%) Language : German Default : No Forced : No ​
    Code:
    General Complete name : Bikini.Warriors.Ep.01.German.AC3.DL.720p.BluRay.x264-AST4u.mkv Format : Matroska Format version : Version 4 File size : 132 MiB Duration : 4 min 0 s Overall bit rate : 4 619 kb/s Encoded date : UTC 2018-11-08 16:20:29 Writing application : mkvmerge v8.1.0 ('Psychedelic Postcard') 32bit Writing library : libebml v1.3.1 + libmatroska v1.4.2 Video ID : 3 Format : AVC Format/Info : Advanced Video Codec Format profile : High@L4.1 Format settings : CABAC / 4 Ref Frames Format settings, CABAC : Yes Format settings, RefFrames : 4 frames Codec ID : V_MPEG4/ISO/AVC Duration : 4 min 0 s Bit rate : 3 710 kb/s Width : 1 280 pixels Height : 720 pixels Display aspect ratio : 16:9 Frame rate mode : Constant Frame rate : 23.976 (24000/1001) FPS Color space : YUV Chroma subsampling : 4:2:0 Bit depth : 8 bits Scan type : Progressive Bits/(Pixel*Frame) : 0.168 Stream size : 106 MiB (80%) Writing library : x264 core 148 r2638 7599210 Encoding settings : cabac=1 / ref=3 / deblock=1:0:0 / analyse=0x3:0x113 / me=hex / subme=9 / psy=1 / psy_rd=1.00:0.00 / mixed_ref=1 / me_range=16 / chroma_me=1 / trellis=1 / 8x8dct=1 / cqm=0 / deadzone=21,11 / fast_pskip=1 / chroma_qp_offset=-2 / threads=12 / lookahead_threads=1 / sliced_threads=0 / nr=0 / decimate=1 / interlaced=0 / bluray_compat=0 / constrained_intra=0 / bframes=3 / b_pyramid=2 / b_adapt=2 / b_bias=0 / direct=1 / weightb=1 / open_gop=0 / weightp=2 / keyint=240 / keyint_min=23 / scenecut=40 / intra_refresh=0 / rc_lookahead=40 / rc=crf / mbtree=1 / crf=16.0 / qcomp=0.60 / qpmin=0 / qpmax=69 / qpstep=4 / vbv_maxrate=62500 / vbv_bufsize=78125 / crf_max=0.0 / nal_hrd=none / filler=0 / ip_ratio=1.40 / aq=1:1.00 Default : Yes Forced : No Audio #1 ID : 4 Format : AC-3 Format/Info : Audio Coding 3 Commercial name : Dolby Digital Codec ID : A_AC3 Duration : 4 min 0 s Bit rate mode : Constant Bit rate : 448 kb/s Channel(s) : 2 channels Channel layout : L R Sampling rate : 48.0 kHz Frame rate : 31.250 FPS (1536 SPF) Bit depth : 16 bits Compression mode : Lossy Stream size : 12.8 MiB (10%) Title : Japanisch Language : Japanese Service kind : Complete Main Default : No Forced : No Audio #2 ID : 5 Format : AC-3 Format/Info : Audio Coding 3 Commercial name : Dolby Digital Codec ID : A_AC3 Duration : 4 min 0 s Bit rate mode : Constant Bit rate : 448 kb/s Channel(s) : 2 channels Channel layout : L R Sampling rate : 48.0 kHz Frame rate : 31.250 FPS (1536 SPF) Bit depth : 16 bits Compression mode : Lossy Stream size : 12.8 MiB (10%) Title : Deutsch Language : German Service kind : Complete Main Default : Yes Forced : No Text #1 ID : 1 Format : PGS Muxing mode : zlib Codec ID : S_HDMV/PGS Codec ID/Info : Picture based subtitle format used on BDs/HD-DVDs Duration : 3 min 2 s Bit rate : 14.9 kb/s Count of elements : 108 Stream size : 330 KiB (0%) Title : Deutsch [Full] Language : German Default : No Forced : No Text #2 ID : 2 Format : PGS Muxing mode : zlib Codec ID : S_HDMV/PGS Codec ID/Info : Picture based subtitle format used on BDs/HD-DVDs Duration : 2 s 336 ms Bit rate : 28.1 kb/s Count of elements : 2 Stream size : 8.00 KiB (0%) Title : Deutsch [Forced] Language : German Default : Yes Forced : No ​
    Code:
    General Complete name : Bikini.Warriors.Ep.01.German.AC3.DL.1080p.BluRay.x264-AST4u.mkv Format : Matroska Format version : Version 4 File size : 244 MiB Duration : 4 min 0 s Overall bit rate : 8 516 kb/s Encoded date : UTC 2018-11-08 18:03:29 Writing application : mkvmerge v8.1.0 ('Psychedelic Postcard') 32bit Writing library : libebml v1.3.1 + libmatroska v1.4.2 Video ID : 3 Format : AVC Format/Info : Advanced Video Codec Format profile : High@L4.1 Format settings : CABAC / 4 Ref Frames Format settings, CABAC : Yes Format settings, RefFrames : 4 frames Codec ID : V_MPEG4/ISO/AVC Duration : 4 min 0 s Bit rate : 7 606 kb/s Width : 1 920 pixels Height : 1 080 pixels Display aspect ratio : 16:9 Frame rate mode : Constant Frame rate : 23.976 (24000/1001) FPS Color space : YUV Chroma subsampling : 4:2:0 Bit depth : 8 bits Scan type : Progressive Bits/(Pixel*Frame) : 0.153 Stream size : 218 MiB (89%) Writing library : x264 core 148 r2705+54 9f484c1 t_mod_Custom [8-bit@all X86_64] Encoding settings : cabac=1 / ref=3 / deblock=1:0:0 / analyse=0x3:0x113 / me=hex / subme=9 / psy=1 / fade_compensate=0.00 / psy_rd=1.00:0.00 / mixed_ref=1 / me_range=16 / chroma_me=1 / trellis=1 / 8x8dct=1 / cqm=0 / deadzone=21,11 / fast_pskip=1 / chroma_qp_offset=-2 / threads=24 / lookahead_threads=2 / sliced_threads=0 / nr=0 / decimate=1 / interlaced=0 / bluray_compat=0 / constrained_intra=0 / fgo=0 / bframes=3 / b_pyramid=2 / b_adapt=2 / b_bias=0 / direct=1 / weightb=1 / open_gop=0 / weightp=2 / keyint=240 / keyint_min=23 / scenecut=40 / intra_refresh=0 / rc_lookahead=40 / rc=crf / mbtree=1 / crf=16.0000 / qcomp=0.60 / qpmin=0:0:0 / qpmax=69:69:69 / qpstep=4 / vbv_maxrate=62500 / vbv_bufsize=78125 / crf_max=0.0 / nal_hrd=none / filler=0 / ip_ratio=1.40 / aq=1:1.00 / aq-sensitivity=10.00 / aq-factor=1.00:1.00:1.00 / aq2=0 / aq3=0 Default : Yes Forced : No Audio #1 ID : 4 Format : AC-3 Format/Info : Audio Coding 3 Commercial name : Dolby Digital Codec ID : A_AC3 Duration : 4 min 0 s Bit rate mode : Constant Bit rate : 448 kb/s Channel(s) : 2 channels Channel layout : L R Sampling rate : 48.0 kHz Frame rate : 31.250 FPS (1536 SPF) Bit depth : 16 bits Compression mode : Lossy Stream size : 12.8 MiB (5%) Title : Japanisch Language : Japanese Service kind : Complete Main Default : No Forced : No Audio #2 ID : 5 Format : AC-3 Format/Info : Audio Coding 3 Commercial name : Dolby Digital Codec ID : A_AC3 Duration : 4 min 0 s Bit rate mode : Constant Bit rate : 448 kb/s Channel(s) : 2 channels Channel layout : L R Sampling rate : 48.0 kHz Frame rate : 31.250 FPS (1536 SPF) Bit depth : 16 bits Compression mode : Lossy Stream size : 12.8 MiB (5%) Title : Deutsch Language : German Service kind : Complete Main Default : Yes Forced : No Text #1 ID : 1 Format : PGS Muxing mode : zlib Codec ID : S_HDMV/PGS Codec ID/Info : Picture based subtitle format used on BDs/HD-DVDs Duration : 3 min 2 s Bit rate : 14.9 kb/s Count of elements : 108 Stream size : 330 KiB (0%) Title : Deutsch [Full] Language : German Default : No Forced : No Text #2 ID : 2 Format : PGS Muxing mode : zlib Codec ID : S_HDMV/PGS Codec ID/Info : Picture based subtitle format used on BDs/HD-DVDs Duration : 2 s 336 ms Bit rate : 28.1 kb/s Count of elements : 2 Stream size : 8.00 KiB (0%) Title : Deutsch [Forced] Language : German Default : Yes Forced : No ​
    Code:
    General Complete name : Bikini.Warriors.Ep.01.German.DTS.2.0.DL.1080p.BluRay.x264-AST4u.mkv Format : Matroska Format version : Version 4 File size : 341 MiB Duration : 4 min 0 s Overall bit rate mode : Variable Overall bit rate : 11.9 Mb/s Encoded date : UTC 2018-11-08 18:03:54 Writing application : mkvmerge v8.1.0 ('Psychedelic Postcard') 32bit Writing library : libebml v1.3.1 + libmatroska v1.4.2 Video ID : 5 Format : AVC Format/Info : Advanced Video Codec Format profile : High@L4.1 Format settings : CABAC / 4 Ref Frames Format settings, CABAC : Yes Format settings, RefFrames : 4 frames Codec ID : V_MPEG4/ISO/AVC Duration : 4 min 0 s Bit rate : 7 606 kb/s Width : 1 920 pixels Height : 1 080 pixels Display aspect ratio : 16:9 Frame rate mode : Constant Frame rate : 23.976 (24000/1001) FPS Color space : YUV Chroma subsampling : 4:2:0 Bit depth : 8 bits Scan type : Progressive Bits/(Pixel*Frame) : 0.153 Stream size : 218 MiB (64%) Writing library : x264 core 148 r2705+54 9f484c1 t_mod_Custom [8-bit@all X86_64] Encoding settings : cabac=1 / ref=3 / deblock=1:0:0 / analyse=0x3:0x113 / me=hex / subme=9 / psy=1 / fade_compensate=0.00 / psy_rd=1.00:0.00 / mixed_ref=1 / me_range=16 / chroma_me=1 / trellis=1 / 8x8dct=1 / cqm=0 / deadzone=21,11 / fast_pskip=1 / chroma_qp_offset=-2 / threads=24 / lookahead_threads=2 / sliced_threads=0 / nr=0 / decimate=1 / interlaced=0 / bluray_compat=0 / constrained_intra=0 / fgo=0 / bframes=3 / b_pyramid=2 / b_adapt=2 / b_bias=0 / direct=1 / weightb=1 / open_gop=0 / weightp=2 / keyint=240 / keyint_min=23 / scenecut=40 / intra_refresh=0 / rc_lookahead=40 / rc=crf / mbtree=1 / crf=16.0000 / qcomp=0.60 / qpmin=0:0:0 / qpmax=69:69:69 / qpstep=4 / vbv_maxrate=62500 / vbv_bufsize=78125 / crf_max=0.0 / nal_hrd=none / filler=0 / ip_ratio=1.40 / aq=1:1.00 / aq-sensitivity=10.00 / aq-factor=1.00:1.00:1.00 / aq2=0 / aq3=0 Default : Yes Forced : No Audio #1 ID : 1 Format : DTS XLL Format/Info : Digital Theater Systems Commercial name : DTS-HD Master Audio Codec ID : A_DTS Duration : 4 min 0 s Bit rate mode : Variable Bit rate : 2 162 kb/s Channel(s) : 2 channels Channel layout : L R Sampling rate : 48.0 kHz Frame rate : 93.750 FPS (512 SPF) Bit depth : 24 bits Compression mode : Lossless Stream size : 61.9 MiB (18%) Title : Japanisch Language : Japanese Default : No Forced : No Audio #2 ID : 2 Format : DTS XLL Format/Info : Digital Theater Systems Commercial name : DTS-HD Master Audio Codec ID : A_DTS Duration : 4 min 0 s Bit rate mode : Variable Bit rate : 2 125 kb/s Channel(s) : 2 channels Channel layout : L R Sampling rate : 48.0 kHz Frame rate : 93.750 FPS (512 SPF) Bit depth : 24 bits Compression mode : Lossless Stream size : 60.9 MiB (18%) Title : Deutsch Language : German Default : Yes Forced : No Text #1 ID : 3 Format : PGS Muxing mode : zlib Codec ID : S_HDMV/PGS Codec ID/Info : Picture based subtitle format used on BDs/HD-DVDs Duration : 3 min 2 s Bit rate : 14.9 kb/s Count of elements : 108 Stream size : 330 KiB (0%) Title : Deutsch [Full] Language : German Default : No Forced : No Text #2 ID : 4 Format : PGS Muxing mode : zlib Codec ID : S_HDMV/PGS Codec ID/Info : Picture based subtitle format used on BDs/HD-DVDs Duration : 2 s 336 ms Bit rate : 28.1 kb/s Count of elements : 2 Stream size : 8.00 KiB (0%) Title : Deutsch [Forced] Language : German Default : Yes Forced : No ​

    Anmerkung:
    Dies ist ein Original BluRay Encode.
    Die HyperSexy Episoden sind wie die normalen Episoden, enthalten aber noch explizitere Szenen.

    408p:[​IMG]720p:[​IMG]1080p:[​IMG]1080p DTS:[​IMG]

    Geschützter Bereich
    Registriere dich oder logge dich ein, um den Inhalt sehen zu können
     
    Zuletzt bearbeitet: 8. Nov. 2018
  2. Uploading123

    Uploading123 High Quality Anime Seelenverkäufer

    Registriert seit:
    7. März 2013
    Beiträge:
    563
    Zustimmungen:
    13.941

    Bikini Warriors

    [​IMG]

    .:Beschreibung:.
    In einem weit entfernten Fantasiereich versuchen vier mutige, sexy Frauen in ihren freizügigen Bikinis, pardon Rüstungen, die Welt mit vollem Körpereinsatz vor der Zerstörung durch Monster und bösen Mächten zu bewahren, weswegen sie sich „Heldinnen“ nennen. Zu ihnen gehören ein lüsterner Paladin, eine schüchterne Magierin, eine verlockende Elfe sowie die süße Tochter eines legendären Kriegers, der das Reich in der Vergangenheit einmal gerettet hat.
    Doch der Weg der Heldinnen ist oft steinig und beschwerlich, denn leider werden ihre offenherzigen Dienste nur sehr schlecht bezahlt und auch beim Handeln mit den Bauern und Dorfbewohnern müssen die Schönheiten oft ihr letztes Höschen hergeben. Doch davon lassen sich die vier Busenwunder nicht entmutigen, denn zahlreiche Abenteuer liegen vor ihnen ...

    Bikini Warriors vereint alles, was das Männerherz begehrt: schöne Frauen mit großen Brüsten, Schwerter, Humor und jede Menge heiße Action! Scharfe Unterhaltung ist garantiert!

    .:Info:.
    Größe: 7046 MB
    Laufzeit: 88 Min.
    Format: .mkv
    Video Stream: BD
    Video Codec: MPEG-4 H.264 / AVC
    Audio Stream: DTS-HD MA 2.0
    Sprache/n: GER, JPN
    Untertitel: GER
    Releaser: AST4u
    Episodenanzahl: 12/12 + OVAs 4/4
    Hoster: SO, RG

    .:NFO:.
    Code:
    Bikini.Warriors.Ep.01-12.u.OVA.13-16.u.HyperSexy.Ep.01-06.Complete.German.DTS.2.0.DL.1080p
      .BluRay.x264-AST4u (NEU)
    
    Originaltitel: Bikini Warriors
    Sprache: Deutsch, Japanisch
    Untertitel: Deutsch
    FSK: 12 Jahre
    Erscheinungstermin: 16.11.2018 (NEU)
    Genre: Action, Comedy, Abenteuer, Ecchi, Fantasy, Magie
    Source: BluRay
    Releasedatum: 08.11.2018
    
    Episoden...............: 01-12 / 12
    OVA....................: 13-16 / 16
    Hyper-SexyEpisoden.....: 01-06 / 06
    
    Format                                   : Matroska
    Dateigroesse                             : 6.87 GB
    Dauer                                    : 22 x 04 Minuten
    Gesamte Bitrate                          : 15,4 Mb/s
    
    Video
    Format                                   : AVC
    Format-Profil                            : High@L4.1
    Bitraten-Modus                           : variabel
    Bitrate                                  : crf 16
    Breite                                   : 1 920 Pixel
    H he                                     : 1 080 Pixel
    BildseitenverhSltnis                     : 16:9
    Modus der Bildwiederholungsrate          : konstant
    Bildwiederholungsrate                    : 23,976 FPS
    
    Audio
    deutsch: DTS-HD MA 2.0
    Bitrate: 2 182 kb/s / 1 509 kb/s
    
    japanisch: DTS-HD MA 2.0
    Bitrate: 2 182 kb/s / 1 509 kb/s
    
    Original BluRay und encodet by AST4u-HD-Crew
    
    Bikini-Girls im Kampf gegen das B se
    
    Vier sexy Heldinnen in freizngigen Rnstungen retten die Welt
    
    In einem Fantasiereich versuchen vier mutige, sexy Frauen in ihren freizngigen Bikinis,
      pardon Rnstungen, die Welt mit vollem K rpereinsatz vor der Zerst rung zu bewahren,
      weswegen sie sich ?Heldinnen? nennen. Zu ihnen geh ren ein Paladin, eine Magierin, eine
      Elfe sowie die Tochter eines legendSren Kriegers, der das Reich in der Vergangenheit
      einmal gerettet hat. Doch leider werden ihre offenherzigen Dienste schlecht bezahlt und
      auch beim Handeln mit den Dorfbewohnern mnssen sie oft ihr letztes H schen hergeben. Doch
      davon lassen sie sich nicht entmutigen
    
    Bikini Warriors vereint alles, was das MSnnerherz begehrt: sch ne Frauen mit gro en
      Brnsten, Schwerter, Humor und jede Menge hei e Action! Scharfe Unterhaltung ist
      garantiert!
    
    01 Bikinirnstung ist Bikinirnstung, kein Bikini
    02 Was Helden vor der Reise brauchen
    03 Auch Heldinnen haben Hunger
    04 Heldinnen verlangen keine Belohnung
    05 Aufgehoben und nie benutzt
    06 Bis zur Unendlichkeit und noch viel weiter
    07 Vertraue keinem aus der Schenke
    08 Neue Mitglieder sind in der zweiten Abenteuerphase nblich
    09 Was Heldinnen nach einem Verrat machen
    10 Wnnsche gehen nicht so einfach in Erfnllung
    11 Die weiche, helle Haut Paladins in der Falle der Lust
    12 Auch wir wissen nicht, ob das nun wirklich das Finale ist
    
    https://ast4u.me
    


    Mirrors kompatibel

    .:Share-online.biz:. [​IMG]
    Geschützter Bereich
    Registriere dich oder logge dich ein, um den Inhalt sehen zu können
    .:Rapidgator.net:. [​IMG]
    Geschützter Bereich
    Registriere dich oder logge dich ein, um den Inhalt sehen zu können
     
    greatcwwc, Farbrausch, puxi und 3 anderen gefällt das.