1. Die erweiterte Suche funktioniert wieder. Die LiveSearch ist vorübergehend deaktiviert

Wir verwenden Cookies, um deinen Aufenthalt auf Animes.so möglichst angenehm gestalten zu können. Mehr erfahren

Bleach [Laufend][Ger-Dub][720p|1080p|1080p Plus][WebRip] - AoD

Dieses Thema im Forum "Serien (GerDub)" wurde erstellt von Fuuko, 26. Nov. 2018.

  1. Fuuko

    Fuuko Kleiner Experte Otaku Experte

    Registriert seit:
    19. Sep. 2018
    Beiträge:
    57
    Zustimmungen:
    1.370
    Bleach

    [​IMG]

    [​IMG]
    Der 15-jährige Schüler Ichigo Kurosaki kann seit seiner Kindheit Geister sehen. Doch damit nicht genug: Als er die Shinigami Rukia trifft, wird sein Leben noch einmal gehörig auf den Kopf gestellt. Während eines Kampfes in der Menschenwelt ist Rukia gezwungen, ihre Kräfte auf Ichigo zu übertragen, um ihrer beider Leben zu retten. Dank der neu gewonnenen spirituellen Kräfte entdeckt Ichigo seine wahre Berufung: die Lebenden wie die Toten um alles in der Welt vor dem Bösen zu beschützen.
    [​IMG]
    Episoden:
    109 / 366
    Spieldauer: 24 Min.
    Source: WebRip
    Format: MKV
    Video-Codec: x264
    Audio-Codec: AAC
    Sprache: Deutsch
    Untertitel: Überschriften
    Publisher: Anime On Demand
    Auflösung: 960x720 | 1440x1080 | 1440x1080 Plus
    Größe: 250MB | 400MB | 1000MB
    Code:
    Complete name               : Bleach.S01E01.GerDub.720p.WebHD.x264-Fuuko.mkv
    Format                      : Matroska
    Format version              : Version 4
    File size                   : 254 MiB
    Duration                    : 22 min 50 s
    Overall bit rate            : 1 557 kb/s
    Encoded date                : UTC 2018-11-26 16:40:12
    Writing application         : mkvmerge v10.0.0 ('To Drown In You') 64bit
    Writing library             : libebml v1.3.4 + libmatroska v1.4.5
    
    Video
    ID                          : 1
    Format                      : AVC
    Format/Info                 : Advanced Video Codec
    Format profile              : High@L4
    Format settings             : CABAC / 9 Ref Frames
    Format settings, CABAC      : Yes
    Format settings, ReFrames   : 9 frames
    Codec ID                    : V_MPEG4/ISO/AVC
    Duration                    : 22 min 50 s
    Bit rate                    : 1 297 kb/s
    Width                       : 960 pixels
    Height                      : 720 pixels
    Display aspect ratio        : 4:3
    Frame rate mode             : Variable
    Frame rate                  : 23.976 FPS
    Color space                 : YUV
    Chroma subsampling          : 4:2:0
    Bit depth                   : 8 bits
    Scan type                   : Progressive
    Bits/(Pixel*Frame)          : 0.078
    Stream size                 : 212 MiB (83%)
    Writing library             : x264 core 157 r2935 545de2f
    Encoding settings           : cabac=1 / ref=9 / deblock=1:0:-1 / analyse=0x3:0x133 / me=umh / subme=10 / psy=1 / psy_rd=0.60:0.10 / mixed_ref=1 / me_range=24 / chroma_me=1 / trellis=2 / 8x8dct=1 / cqm=0 / deadzone=21,11 / fast_pskip=1 / chroma_qp_offset=-3 / threads=22 / lookahead_threads=5 / sliced_threads=0 / nr=0 / decimate=0 / interlaced=0 / bluray_compat=0 / constrained_intra=0 / bframes=16 / b_pyramid=2 / b_adapt=2 / b_bias=0 / direct=3 / weightb=1 / open_gop=0 / weightp=2 / keyint=192 / keyint_min=19 / scenecut=0 / intra_refresh=0 / rc_lookahead=80 / rc=crf / mbtree=1 / crf=17.0 / qcomp=0.60 / qpmin=0 / qpmax=69 / qpstep=4 / vbv_maxrate=4096 / vbv_bufsize=10240 / crf_max=0.0 / nal_hrd=none / filler=0 / ip_ratio=1.40 / aq=3:1.10
    Default                     : Yes
    Forced                      : No
    
    Audio
    ID                          : 2
    Format                      : AAC LC
    Format/Info                 : Advanced Audio Codec Low Complexity
    Codec ID                    : A_AAC-2
    Duration                    : 22 min 50 s
    Bit rate                    : 256 kb/s
    Channel(s)                  : 2 channels
    Channel layout              : L R
    Sampling rate               : 48.0 kHz
    Frame rate                  : 46.875 FPS (1024 SPF)
    Compression mode            : Lossy
    Delay relative to video     : -83 ms
    Stream size                 : 41.8 MiB (16%)
    Default                     : Yes
    Forced                      : No
    Code:
    Complete name               : Bleach.S01E01.GerDub.1080p.WebHD.x264-Fuuko.mkv
    Format                      : Matroska
    Format version              : Version 4
    File size                   : 423 MiB
    Duration                    : 22 min 50 s
    Overall bit rate            : 2 588 kb/s
    Encoded date                : UTC 2018-11-26 16:40:17
    Writing application         : mkvmerge v10.0.0 ('To Drown In You') 64bit
    Writing library             : libebml v1.3.4 + libmatroska v1.4.5
    
    Video
    ID                          : 1
    Format                      : AVC
    Format/Info                 : Advanced Video Codec
    Format profile              : High@L5
    Format settings             : CABAC / 12 Ref Frames
    Format settings, CABAC      : Yes
    Format settings, ReFrames   : 12 frames
    Codec ID                    : V_MPEG4/ISO/AVC
    Duration                    : 22 min 50 s
    Bit rate                    : 2 328 kb/s
    Width                       : 1 440 pixels
    Height                      : 1 080 pixels
    Display aspect ratio        : 4:3
    Frame rate mode             : Variable
    Frame rate                  : 23.976 FPS
    Color space                 : YUV
    Chroma subsampling          : 4:2:0
    Bit depth                   : 8 bits
    Scan type                   : Progressive
    Bits/(Pixel*Frame)          : 0.062
    Stream size                 : 380 MiB (90%)
    Writing library             : x264 core 157 r2935 545de2f
    Encoding settings           : cabac=1 / ref=12 / deblock=1:0:-1 / analyse=0x3:0x133 / me=umh / subme=10 / psy=1 / psy_rd=0.60:0.10 / mixed_ref=1 / me_range=24 / chroma_me=1 / trellis=2 / 8x8dct=1 / cqm=0 / deadzone=21,11 / fast_pskip=1 / chroma_qp_offset=-3 / threads=34 / lookahead_threads=8 / sliced_threads=0 / nr=0 / decimate=0 / interlaced=0 / bluray_compat=0 / constrained_intra=0 / bframes=16 / b_pyramid=2 / b_adapt=2 / b_bias=0 / direct=3 / weightb=1 / open_gop=0 / weightp=2 / keyint=192 / keyint_min=19 / scenecut=0 / intra_refresh=0 / rc_lookahead=80 / rc=crf / mbtree=1 / crf=18.0 / qcomp=0.60 / qpmin=0 / qpmax=69 / qpstep=4 / vbv_maxrate=6144 / vbv_bufsize=15360 / crf_max=0.0 / nal_hrd=none / filler=0 / ip_ratio=1.40 / aq=3:1.10
    Default                     : Yes
    Forced                      : No
    
    Audio
    ID                          : 2
    Format                      : AAC LC
    Format/Info                 : Advanced Audio Codec Low Complexity
    Codec ID                    : A_AAC-2
    Duration                    : 22 min 50 s
    Bit rate                    : 256 kb/s
    Channel(s)                  : 2 channels
    Channel layout              : L R
    Sampling rate               : 48.0 kHz
    Frame rate                  : 46.875 FPS (1024 SPF)
    Compression mode            : Lossy
    Delay relative to video     : -83 ms
    Stream size                 : 41.8 MiB (10%)
    Default                     : Yes
    Forced                      : No
    Code:
    Complete name               : Bleach.S01E01.GerDub.1080p.Plus.WebHD.x264-Fuuko.mkv
    Format                      : Matroska
    Format version              : Version 4
    File size                   : 954 MiB
    Duration                    : 22 min 50 s
    Overall bit rate            : 5 838 kb/s
    Encoded date                : UTC 2018-11-26 16:40:25
    Writing application         : mkvmerge v10.0.0 ('To Drown In You') 64bit
    Writing library             : libebml v1.3.4 + libmatroska v1.4.5
    
    Video
    ID                          : 1
    Format                      : AVC
    Format/Info                 : Advanced Video Codec
    Format profile              : High@L5
    Format settings             : CABAC / 12 Ref Frames
    Format settings, CABAC      : Yes
    Format settings, ReFrames   : 12 frames
    Codec ID                    : V_MPEG4/ISO/AVC
    Duration                    : 22 min 50 s
    Bit rate                    : 5 579 kb/s
    Width                       : 1 440 pixels
    Height                      : 1 080 pixels
    Display aspect ratio        : 4:3
    Frame rate mode             : Variable
    Frame rate                  : 23.976 FPS
    Color space                 : YUV
    Chroma subsampling          : 4:2:0
    Bit depth                   : 8 bits
    Scan type                   : Progressive
    Bits/(Pixel*Frame)          : 0.150
    Stream size                 : 911 MiB (96%)
    Writing library             : x264 core 157 r2935 545de2f
    Encoding settings           : cabac=1 / ref=12 / deblock=1:0:-1 / analyse=0x3:0x133 / me=umh / subme=10 / psy=1 / psy_rd=0.70:0.15 / mixed_ref=1 / me_range=24 / chroma_me=1 / trellis=2 / 8x8dct=1 / cqm=0 / deadzone=21,11 / fast_pskip=1 / chroma_qp_offset=-3 / threads=24 / lookahead_threads=6 / sliced_threads=0 / nr=0 / decimate=0 / interlaced=0 / bluray_compat=0 / constrained_intra=0 / bframes=16 / b_pyramid=2 / b_adapt=2 / b_bias=0 / direct=3 / weightb=1 / open_gop=0 / weightp=2 / keyint=192 / keyint_min=19 / scenecut=0 / intra_refresh=0 / rc_lookahead=80 / rc=crf / mbtree=1 / crf=15.0 / qcomp=0.60 / qpmin=0 / qpmax=69 / qpstep=4 / vbv_maxrate=20480 / vbv_bufsize=40960 / crf_max=0.0 / nal_hrd=none / filler=0 / ip_ratio=1.40 / aq=3:1.10
    Default                     : Yes
    Forced                      : No
    
    Audio
    ID                          : 2
    Format                      : AAC LC
    Format/Info                 : Advanced Audio Codec Low Complexity
    Codec ID                    : A_AAC-2
    Duration                    : 22 min 50 s
    Bit rate                    : 256 kb/s
    Channel(s)                  : 2 channels
    Channel layout              : L R
    Sampling rate               : 48.0 kHz
    Frame rate                  : 46.875 FPS (1024 SPF)
    Compression mode            : Lossy
    Delay relative to video     : -83 ms
    Stream size                 : 41.8 MiB (4%)
    Default                     : Yes
    Forced                      : No
    [​IMG]
    960x720 [​IMG]
    1440x1080 [​IMG]
    1440x1080 Plus [​IMG]

    Geschützter Bereich
    Registriere dich oder logge dich ein, um den Inhalt sehen zu können
     
    Zuletzt bearbeitet: 17. März 2019 um 12:34 Uhr
    wolfi1991, HoDeluxe, GammaWar und 50 anderen gefällt das.
  2. Fuuko

    Fuuko Kleiner Experte Otaku Experte

    Registriert seit:
    19. Sep. 2018
    Beiträge:
    57
    Zustimmungen:
    1.370
    Neue Episoden hinzugefügt
    Episode 107 - Das wütende Schwert! Der Moment des Untergangs
    Episode 108 - Das Klagelied des Bount! Das letzte Gefecht
    Episode 109 - Ichigo und Rukia, im Himmel kreisende Gedanken

    Staffel 5 ist damit beendet, Staffel 6 startet dann vermutlich erst mit dem Erscheinen der DVD im Mai.
     
    Eukarion gefällt das.