Wir verwenden Cookies, um deinen Aufenthalt auf Animes.so möglichst angenehm gestalten zu können. Mehr erfahren

Bokutachi wa Benkyou ga Dekinai | We Never Learn [Jap-Dub][Ger-Sub][720p|1080p Plus][WebRip] - AoD

Dieses Thema im Forum "Download Archiv" wurde erstellt von Ta@, 13. Apr. 2019.

  1. Ta@

    Ta@ Erfahrener Otaku Otaku König

    Registriert seit:
    7. Juli 2016
    Beiträge:
    219
    Zustimmungen:
    18.439
    Bokutachi wa Benkyou ga Dekinai
    We Never Learn
    We Can't Study, BokuBen

    [​IMG]
    [​IMG]

    Yugia strebt ein Stipendium für die Oberschule an, da er aus ärmlichen Verhältnissen stammt. Seine Schule gibt im dafür eine Auflage: Er soll als Nachhilfelehrer zwei bildhübsche Mädchen zu ihren Wunschschulen bringen. Ogata ist eine Art naturwissenschaftliches Genie, Furuhashi hingegen ein literarisches Ausnahmetalent. Doch streben sie jeweils eine Schule im Kompetenzbereich des anderen an und sind außerhalb ihrer eigenen Themengebiete vollkommen aufgeschmissen …

    Folgen: 3/12
    Größe pro Folge: ~270 MB/~985 MB
    Folgendauer: ~24 Min
    Releaser: Ta@
    Art: Lizenzrelease
    Sprache: Japanisch
    Untertitel: Deutsch
    Jahr: 2019
    Genres: Alltagsleben, Harem, Komödie, Romanze
    Auflösung: 1280x720/1920x1080
    Format: MKV
    Quelle: WebRip
    Videocodec: x264
    Farbtiefe: 8Bit
    Audiocodec: AAC
    Publisher: Anime-on-Demand
    Hoster: Share-Online

    [​IMG]
    Code:
    General Complete name : [Ta@]We_Never_Learn_01_[Web,720p,AAC].mkv Format : Matroska Format version : Version 4 File size : 272 MiB Duration : 23 min 38 s Overall bit rate : 1 606 kb/s Encoded date : UTC 2019-04-13 21:10:24 Writing application : mkvmerge v31.0.0 ('Dolores In A Shoestand') 64-bit Writing library : libebml v1.3.6 + libmatroska v1.4.9 Video ID : 1 Format : AVC Format/Info : Advanced Video Codec Format profile : High@L4 Format settings : CABAC / 9 Ref Frames Format settings, CABAC : Yes Format settings, RefFrames : 9 frames Codec ID : V_MPEG4/ISO/AVC Duration : 23 min 38 s Bit rate : 1 348 kb/s Width : 1 280 pixels Height : 720 pixels Display aspect ratio : 16:9 Frame rate mode : Constant Frame rate : 23.976 (24000/1001) FPS Color space : YUV Chroma subsampling : 4:2:0 Bit depth : 8 bits Scan type : Progressive Bits/(Pixel*Frame) : 0.061 Stream size : 228 MiB (84%) Writing library : x264 core 157 r2969 d4099dd Encoding settings : cabac=1 / ref=9 / deblock=1:0:-1 / analyse=0x3:0x133 / me=umh / subme=10 / psy=1 / psy_rd=0.60:0.10 / mixed_ref=1 / me_range=24 / chroma_me=1 / trellis=2 / 8x8dct=1 / cqm=0 / deadzone=21,11 / fast_pskip=1 / chroma_qp_offset=-3 / threads=12 / lookahead_threads=3 / sliced_threads=0 / nr=0 / decimate=0 / interlaced=0 / bluray_compat=0 / constrained_intra=0 / bframes=16 / b_pyramid=2 / b_adapt=2 / b_bias=0 / direct=3 / weightb=1 / open_gop=0 / weightp=2 / keyint=192 / keyint_min=19 / scenecut=0 / intra_refresh=0 / rc_lookahead=80 / rc=crf / mbtree=1 / crf=17.0 / qcomp=0.60 / qpmin=0 / qpmax=69 / qpstep=4 / vbv_maxrate=4096 / vbv_bufsize=10240 / crf_max=0.0 / nal_hrd=none / filler=0 / ip_ratio=1.40 / aq=3:1.10 Default : Yes Forced : No Audio ID : 2 Format : AAC LC Format/Info : Advanced Audio Codec Low Complexity Codec ID : A_AAC-2 Duration : 23 min 38 s Bit rate : 256 kb/s Channel(s) : 2 channels Channel layout : L R Sampling rate : 48.0 kHz Frame rate : 46.875 FPS (1024 SPF) Compression mode : Lossy Delay relative to video : -83 ms Stream size : 43.3 MiB (16%) Default : Yes Forced : No ​
    Code:
    General Complete name : [Ta@]We_Never_Learn_01_[Web,1080pPlus,AAC].mkv Format : Matroska Format version : Version 4 File size : 984 MiB Duration : 23 min 38 s Overall bit rate : 5 818 kb/s Encoded date : UTC 2019-04-13 21:09:35 Writing application : mkvmerge v31.0.0 ('Dolores In A Shoestand') 64-bit Writing library : libebml v1.3.6 + libmatroska v1.4.9 Video ID : 1 Format : AVC Format/Info : Advanced Video Codec Format profile : High@L5 Format settings : CABAC / 12 Ref Frames Format settings, CABAC : Yes Format settings, RefFrames : 12 frames Codec ID : V_MPEG4/ISO/AVC Duration : 23 min 38 s Bit rate : 5 560 kb/s Width : 1 920 pixels Height : 1 080 pixels Display aspect ratio : 16:9 Frame rate mode : Constant Frame rate : 23.976 (24000/1001) FPS Color space : YUV Chroma subsampling : 4:2:0 Bit depth : 8 bits Scan type : Progressive Bits/(Pixel*Frame) : 0.112 Stream size : 940 MiB (96%) Writing library : x264 core 157 r2969 d4099dd Encoding settings : cabac=1 / ref=12 / deblock=1:0:-1 / analyse=0x3:0x133 / me=umh / subme=10 / psy=1 / psy_rd=0.70:0.15 / mixed_ref=1 / me_range=24 / chroma_me=1 / trellis=2 / 8x8dct=1 / cqm=0 / deadzone=21,11 / fast_pskip=1 / chroma_qp_offset=-3 / threads=24 / lookahead_threads=6 / sliced_threads=0 / nr=0 / decimate=0 / interlaced=0 / bluray_compat=0 / constrained_intra=0 / bframes=16 / b_pyramid=2 / b_adapt=2 / b_bias=0 / direct=3 / weightb=1 / open_gop=0 / weightp=2 / keyint=192 / keyint_min=19 / scenecut=0 / intra_refresh=0 / rc_lookahead=80 / rc=crf / mbtree=1 / crf=15.0 / qcomp=0.60 / qpmin=0 / qpmax=69 / qpstep=4 / vbv_maxrate=20480 / vbv_bufsize=40960 / crf_max=0.0 / nal_hrd=none / filler=0 / ip_ratio=1.40 / aq=3:1.10 Default : Yes Forced : No Audio ID : 2 Format : AAC LC Format/Info : Advanced Audio Codec Low Complexity Codec ID : A_AAC-2 Duration : 23 min 38 s Bit rate : 256 kb/s Channel(s) : 2 channels Channel layout : L R Sampling rate : 48.0 kHz Frame rate : 46.875 FPS (1024 SPF) Compression mode : Lossy Delay relative to video : -83 ms Stream size : 43.3 MiB (4%) Default : Yes Forced : No ​

    Anmerkung:
    Die Untertitel sind im Video eingebrannt.

    720p:[​IMG]1080p:[​IMG]

    Geschützter Bereich
    Registriere dich oder logge dich ein, um den Inhalt sehen zu können
     
    Zuletzt bearbeitet: 2. Mai 2019
    The_Iron, Hyro, RaienryuuRgr und 31 anderen gefällt das.

Diese Seite empfehlen