Wir verwenden Cookies, um deinen Aufenthalt auf Animes.so möglichst angenehm gestalten zu können. Mehr erfahren

Boogiepop wa Warawanai | Boogiepop and Others [Jap-Dub][Ger-Sub][720p|1080p][WebRip] - Wakanim

Dieses Thema im Forum "Download Archiv" wurde erstellt von Ta@, 27. Jan. 2019.

  1. Ta@

    Ta@ Erfahrener Otaku Otaku König

    Registriert seit:
    7. Juli 2016
    Beiträge:
    219
    Zustimmungen:
    18.439
    Boogiepop wa Warawanai
    Boogiepop and Others

    [​IMG]
    [​IMG]

    Boogiepop genannt ... und er ist real! Als mehrere weibliche Schülerinnen der Shinyo Academy verschwinden wird erst vermutet, dass es sich um einfache Ausreißerinnen handelt. Doch ein paar Schüler wissen: Hier geht etwas mysteriöses vor. Ist es Boogiepop oder sogar etwas noch Unheilvolleres ...?

    Folgen: 18/18
    Größe pro Folge: ~300 MB/~1500 MB
    Folgendauer: ~24 Min
    Releaser: Ta@
    Art: Lizenzrelease
    Sprache: Japanisch
    Untertitel: Deutsch
    Jahr: 2019
    Genres: Fantasy, Horror, Mystery, Psychodrama
    Auflösung: 1280x720/1920x1080
    Format: MKV
    Quelle: WebRip
    Videocodec: x264
    Farbtiefe: 8Bit
    Audiocodec: AAC
    Publisher: Wakanim
    Hoster: Share-Online

    [​IMG]
    Code:
    General Complete name : [Ta@]Boogiepop_05_[Web,720p,AAC].mkv Format : Matroska Format version : Version 4 File size : 305 MiB Duration : 23 min 40 s Overall bit rate : 1 801 kb/s Encoded date : UTC 2019-01-27 19:41:30 Writing application : mkvmerge v10.0.0 ('To Drown In You') 64bit Writing library : libebml v1.3.4 + libmatroska v1.4.5 Attachments : font.ttf Video ID : 1 Format : AVC Format/Info : Advanced Video Codec Format profile : High@L4.1 Format settings : CABAC / 9 Ref Frames Format settings, CABAC : Yes Format settings, RefFrames : 9 frames Codec ID : V_MPEG4/ISO/AVC Duration : 23 min 40 s Bit rate : 1 607 kb/s Width : 1 280 pixels Height : 720 pixels Display aspect ratio : 16:9 Frame rate mode : Constant Frame rate : 23.976 (24000/1001) FPS Color space : YUV Chroma subsampling : 4:2:0 Bit depth : 8 bits Scan type : Progressive Bits/(Pixel*Frame) : 0.073 Stream size : 272 MiB (89%) Writing library : x264 core 155 r2901 7d0ff22 Encoding settings : cabac=1 / ref=9 / deblock=1:1:1 / analyse=0x3:0x133 / me=umh / subme=10 / psy=1 / psy_rd=0.40:0.00 / mixed_ref=1 / me_range=24 / chroma_me=1 / trellis=2 / 8x8dct=1 / cqm=0 / deadzone=21,11 / fast_pskip=1 / chroma_qp_offset=-2 / threads=22 / lookahead_threads=5 / sliced_threads=0 / nr=0 / decimate=1 / interlaced=0 / bluray_compat=0 / constrained_intra=0 / bframes=10 / b_pyramid=2 / b_adapt=2 / b_bias=0 / direct=3 / weightb=1 / open_gop=0 / weightp=2 / keyint=250 / keyint_min=23 / scenecut=40 / intra_refresh=0 / rc_lookahead=60 / rc=crf / mbtree=1 / crf=14.0 / qcomp=0.60 / qpmin=0 / qpmax=69 / qpstep=4 / ip_ratio=1.40 / aq=1:0.60 Default : Yes Forced : No Audio ID : 2 Format : AAC LC Format/Info : Advanced Audio Codec Low Complexity Codec ID : A_AAC-2 Duration : 23 min 40 s Bit rate : 192 kb/s Channel(s) : 2 channels Channel layout : L R Sampling rate : 48.0 kHz Frame rate : 46.875 FPS (1024 SPF) Compression mode : Lossy Delay relative to video : -21 ms Stream size : 32.4 MiB (11%) Default : Yes Forced : No ​
    Code:
    General Complete name : [Ta@]Boogiepop_05_[Web,1080p,AAC].mkv Format : Matroska Format version : Version 4 File size : 1.49 GiB Duration : 23 min 40 s Overall bit rate : 9 005 kb/s Encoded date : UTC 2019-01-27 19:41:50 Writing application : mkvmerge v10.0.0 ('To Drown In You') 64bit Writing library : libebml v1.3.4 + libmatroska v1.4.5 Attachments : font.ttf Video ID : 1 Format : AVC Format/Info : Advanced Video Codec Format profile : High@L4.1 Format settings : CABAC / 4 Ref Frames Format settings, CABAC : Yes Format settings, RefFrames : 4 frames Codec ID : V_MPEG4/ISO/AVC Duration : 23 min 40 s Bit rate : 8 810 kb/s Width : 1 920 pixels Height : 1 080 pixels Display aspect ratio : 16:9 Frame rate mode : Constant Frame rate : 23.976 (24000/1001) FPS Color space : YUV Chroma subsampling : 4:2:0 Bit depth : 8 bits Scan type : Progressive Bits/(Pixel*Frame) : 0.177 Stream size : 1.46 GiB (98%) Writing library : x264 core 155 r2901 7d0ff22 Encoding settings : cabac=1 / ref=4 / deblock=1:1:1 / analyse=0x3:0x133 / me=umh / subme=10 / psy=1 / psy_rd=0.40:0.00 / mixed_ref=1 / me_range=24 / chroma_me=1 / trellis=2 / 8x8dct=1 / cqm=0 / deadzone=21,11 / fast_pskip=1 / chroma_qp_offset=-2 / threads=24 / lookahead_threads=6 / sliced_threads=0 / nr=0 / decimate=1 / interlaced=0 / bluray_compat=0 / constrained_intra=0 / bframes=10 / b_pyramid=2 / b_adapt=2 / b_bias=0 / direct=3 / weightb=1 / open_gop=0 / weightp=2 / keyint=250 / keyint_min=23 / scenecut=40 / intra_refresh=0 / rc_lookahead=60 / rc=crf / mbtree=1 / crf=12.0 / qcomp=0.60 / qpmin=0 / qpmax=69 / qpstep=4 / ip_ratio=1.40 / aq=1:0.60 Default : Yes Forced : No Audio ID : 2 Format : AAC LC Format/Info : Advanced Audio Codec Low Complexity Codec ID : A_AAC-2 Duration : 23 min 40 s Bit rate : 192 kb/s Channel(s) : 2 channels Channel layout : L R Sampling rate : 48.0 kHz Frame rate : 46.875 FPS (1024 SPF) Compression mode : Lossy Delay relative to video : -21 ms Stream size : 32.4 MiB (2%) Default : Yes Forced : No ​

    Anmerkung:
    Die Untertitel sind im Video eingebrannt.

    720p:[​IMG]1080p:[​IMG]

    Geschützter Bereich
    Registriere dich oder logge dich ein, um den Inhalt sehen zu können
     
    Zuletzt bearbeitet: 30. März 2019
  2. Ta@

    Ta@ Erfahrener Otaku Otaku König

    Registriert seit:
    7. Juli 2016
    Beiträge:
    219
    Zustimmungen:
    18.439
    ~Folge 18 online~
    ~Staffel/Serie abgeschlossen~
     
    farmerjoe gefällt das.

Diese Seite empfehlen