1. Die erweiterte Suche funktioniert wieder. Die LiveSearch ist vorübergehend deaktiviert

Wir verwenden Cookies, um deinen Aufenthalt auf Animes.so möglichst angenehm gestalten zu können. Mehr erfahren

Bungo Stray Dogs [Ger-Jap-Dub][Ger-Sub][AAC|AC-3|DTS-HD][404p|720p|1080p][BluRay] - Fuuko

Dieses Thema im Forum "Serien (GerDub)" wurde erstellt von Fuuko, 13. Aug. 2019 um 03:06 Uhr.

  1. Fuuko

    Fuuko Kleiner Experte Otaku Experte

    Registriert seit:
    19. Sep. 2018
    Beiträge:
    140
    Zustimmungen:
    4.899
    Bungo Stray Dogs

    [​IMG]

    [​IMG]
    [​IMG]
    Episoden: 12 / 12
    Spieldauer: 24 Min.
    Source: Deutsche Original BluRay
    Release by: Fuuko
    Format: mkv
    Sprache: Deutsch [5.1] | Japanisch [2.0]
    Untertitel: Deutsch (Full)
    Audio: AAC [317 kb/s] | AC-3 [640 kb/s] | DTS-HD [2050 kb/s]
    Auflösung : 720x404 | 1280x720 | 1920x1080
    Größe: 250MB | 650MB | 1100MB | 1600MB
    Code:
    Complete name               : Bungo.Stray.Dogs.E01.German.AAC.DL.BDRiP.x264-Fuuko.mkv
    Format                      : Matroska
    Format version              : Version 4
    File size                   : 270 MiB
    Duration                    : 23 min 40 s
    Overall bit rate            : 1 596 kb/s
    Encoded date                : UTC 2019-08-10 23:25:50
    Writing application         : mkvmerge v10.0.0 ('To Drown In You') 64bit
    Writing library             : libebml v1.3.4 + libmatroska v1.4.5
    
    Video
    ID                          : 1
    Format                      : AVC
    Format/Info                 : Advanced Video Codec
    Format profile              : High@L4.1
    Format settings             : CABAC / 4 Ref Frames
    Format settings, CABAC      : Yes
    Format settings, ReFrames   : 4 frames
    Codec ID                    : V_MPEG4/ISO/AVC
    Duration                    : 23 min 39 s
    Bit rate                    : 949 kb/s
    Width                       : 720 pixels
    Height                      : 404 pixels
    Display aspect ratio        : 16:9
    Frame rate mode             : Constant
    Frame rate                  : 23.976 (24000/1001) FPS
    Color space                 : YUV
    Chroma subsampling          : 4:2:0
    Bit depth                   : 8 bits
    Scan type                   : Progressive
    Bits/(Pixel*Frame)          : 0.136
    Stream size                 : 161 MiB (59%)
    Writing library             : x264 core 148
    Encoding settings           : cabac=1 / ref=4 / deblock=1:1:1 / analyse=0x3:0 / me=hex / subme=5 / psy=0 / mixed_ref=0 / me_range=16 / chroma_me=1 / trellis=0 / 8x8dct=1 / cqm=0 / deadzone=21,11 / fast_pskip=0 / chroma_qp_offset=0 / threads=8 / lookahead_threads=2 / sliced_threads=0 / nr=0 / decimate=1 / interlaced=0 / bluray_compat=0 / constrained_intra=0 / bframes=2 / b_pyramid=0 / b_adapt=1 / b_bias=0 / direct=1 / weightb=0 / open_gop=0 / weightp=0 / keyint=24 / keyint_min=13 / scenecut=40 / intra_refresh=0 / rc=crf / mbtree=0 / crf=19.0 / qcomp=0.60 / qpmin=0 / qpmax=69 / qpstep=4 / ip_ratio=1.40 / pb_ratio=1.30 / aq=1:1.00
    Default                     : Yes
    Forced                      : No
    Color range                 : Limited
    Color primaries             : BT.601 NTSC
    Transfer characteristics    : BT.709
    Matrix coefficients         : BT.601
    
    Audio #1
    ID                          : 2
    Format                      : AAC LC
    Format/Info                 : Advanced Audio Codec Low Complexity
    Codec ID                    : A_AAC-2
    Duration                    : 23 min 40 s
    Bit rate                    : 317 kb/s
    Channel(s)                  : 6 channels
    Channel layout              : C L R Ls Rs LFE
    Sampling rate               : 48.0 kHz
    Frame rate                  : 46.875 FPS (1024 SPF)
    Compression mode            : Lossy
    Stream size                 : 53.8 MiB (20%)
    Language                    : German
    Default                     : Yes
    Forced                      : No
    
    Audio #2
    ID                          : 3
    Format                      : AAC LC
    Format/Info                 : Advanced Audio Codec Low Complexity
    Codec ID                    : A_AAC-2
    Duration                    : 23 min 40 s
    Bit rate                    : 317 kb/s
    Channel(s)                  : 2 channels
    Channel layout              : L R
    Sampling rate               : 48.0 kHz
    Frame rate                  : 46.875 FPS (1024 SPF)
    Compression mode            : Lossy
    Stream size                 : 53.8 MiB (20%)
    Language                    : Japanese
    Default                     : No
    Forced                      : No
    
    Text
    ID                          : 4
    Format                      : PGS
    Muxing mode                 : zlib
    Codec ID                    : S_HDMV/PGS
    Codec ID/Info               : Picture based subtitle format used on BDs/HD-DVDs
    Duration                    : 21 min 59 s
    Bit rate                    : 10.4 kb/s
    Count of elements           : 808
    Stream size                 : 1.63 MiB (1%)
    Language                    : German
    Default                     : No
    Forced                      : No
    
    Menu
    00:00:00.000                : en:(01)00:00:00:000
    00:02:37.991                : en:(02)00:02:37:991
    00:12:39.133                : en:(03)00:12:39:133
    00:20:11.710                : en:(04)00:20:11:710
    00:21:39.715                : en:(05)00:21:39:715
    00:22:11.663                : en:(06)00:22:11:663
    Code:
    Complete name               : Bungo.Stray.Dogs.E01.German.AC3.DL.720p.BluRay.x264-Fuuko.mkv
    Format                      : Matroska
    Format version              : Version 4
    File size                   : 632 MiB
    Duration                    : 23 min 40 s
    Overall bit rate            : 3 732 kb/s
    Encoded date                : UTC 2019-08-10 23:23:02
    Writing application         : mkvmerge v10.0.0 ('To Drown In You') 64bit
    Writing library             : libebml v1.3.4 + libmatroska v1.4.5
    
    Video
    ID                          : 1
    Format                      : AVC
    Format/Info                 : Advanced Video Codec
    Format profile              : High@L4.1
    Format settings             : CABAC / 4 Ref Frames
    Format settings, CABAC      : Yes
    Format settings, ReFrames   : 4 frames
    Codec ID                    : V_MPEG4/ISO/AVC
    Duration                    : 23 min 39 s
    Bit rate                    : 2 431 kb/s
    Width                       : 1 280 pixels
    Height                      : 720 pixels
    Display aspect ratio        : 16:9
    Frame rate mode             : Constant
    Frame rate                  : 23.976 (24000/1001) FPS
    Color space                 : YUV
    Chroma subsampling          : 4:2:0
    Bit depth                   : 8 bits
    Scan type                   : Progressive
    Bits/(Pixel*Frame)          : 0.110
    Stream size                 : 411 MiB (65%)
    Writing library             : x264 core 148
    Encoding settings           : cabac=1 / ref=4 / deblock=1:1:1 / analyse=0x3:0 / me=hex / subme=5 / psy=0 / mixed_ref=0 / me_range=16 / chroma_me=1 / trellis=0 / 8x8dct=1 / cqm=0 / deadzone=21,11 / fast_pskip=0 / chroma_qp_offset=0 / threads=8 / lookahead_threads=2 / sliced_threads=0 / nr=0 / decimate=1 / interlaced=0 / bluray_compat=0 / constrained_intra=0 / bframes=2 / b_pyramid=0 / b_adapt=1 / b_bias=0 / direct=1 / weightb=0 / open_gop=0 / weightp=0 / keyint=24 / keyint_min=13 / scenecut=40 / intra_refresh=0 / rc=crf / mbtree=0 / crf=19.0 / qcomp=0.60 / qpmin=0 / qpmax=69 / qpstep=4 / ip_ratio=1.40 / pb_ratio=1.30 / aq=1:1.00
    Default                     : Yes
    Forced                      : No
    Color range                 : Limited
    Color primaries             : BT.709
    Transfer characteristics    : BT.709
    Matrix coefficients         : BT.709
    
    Audio #1
    ID                          : 2
    Format                      : AC-3
    Format/Info                 : Audio Coding 3
    Commercial name             : Dolby Digital
    Codec ID                    : A_AC3
    Duration                    : 23 min 40 s
    Bit rate mode               : Constant
    Bit rate                    : 640 kb/s
    Channel(s)                  : 6 channels
    Channel layout              : L R C LFE Ls Rs
    Sampling rate               : 48.0 kHz
    Frame rate                  : 31.250 FPS (1536 SPF)
    Bit depth                   : 16 bits
    Compression mode            : Lossy
    Stream size                 : 108 MiB (17%)
    Language                    : German
    Service kind                : Complete Main
    Default                     : Yes
    Forced                      : No
    
    Audio #2
    ID                          : 3
    Format                      : AC-3
    Format/Info                 : Audio Coding 3
    Commercial name             : Dolby Digital
    Codec ID                    : A_AC3
    Duration                    : 23 min 40 s
    Bit rate mode               : Constant
    Bit rate                    : 640 kb/s
    Channel(s)                  : 2 channels
    Channel layout              : L R
    Sampling rate               : 48.0 kHz
    Frame rate                  : 31.250 FPS (1536 SPF)
    Bit depth                   : 16 bits
    Compression mode            : Lossy
    Stream size                 : 108 MiB (17%)
    Language                    : Japanese
    Service kind                : Complete Main
    Default                     : No
    Forced                      : No
    
    Text
    ID                          : 4
    Format                      : PGS
    Muxing mode                 : zlib
    Codec ID                    : S_HDMV/PGS
    Codec ID/Info               : Picture based subtitle format used on BDs/HD-DVDs
    Duration                    : 21 min 59 s
    Bit rate                    : 21.8 kb/s
    Count of elements           : 808
    Stream size                 : 3.43 MiB (1%)
    Language                    : German
    Default                     : No
    Forced                      : No
    
    Menu
    00:00:00.000                : en:(01)00:00:00:000
    00:02:37.991                : en:(02)00:02:37:991
    00:12:39.133                : en:(03)00:12:39:133
    00:20:11.710                : en:(04)00:20:11:710
    00:21:39.715                : en:(05)00:21:39:715
    00:22:11.663                : en:(06)00:22:11:663
    Code:
    Complete name               : Bungo.Stray.Dogs.E01.German.AC3.DL.1080p.BluRay.x264-Fuuko.mkv
    Format                      : Matroska
    Format version              : Version 4
    File size                   : 1.12 GiB
    Duration                    : 23 min 40 s
    Overall bit rate            : 6 779 kb/s
    Encoded date                : UTC 2019-08-10 23:19:06
    Writing application         : mkvmerge v10.0.0 ('To Drown In You') 64bit
    Writing library             : libebml v1.3.4 + libmatroska v1.4.5
    
    Video
    ID                          : 1
    Format                      : AVC
    Format/Info                 : Advanced Video Codec
    Format profile              : High@L4.1
    Format settings             : CABAC / 4 Ref Frames
    Format settings, CABAC      : Yes
    Format settings, ReFrames   : 4 frames
    Codec ID                    : V_MPEG4/ISO/AVC
    Duration                    : 23 min 39 s
    Bit rate                    : 5 480 kb/s
    Width                       : 1 920 pixels
    Height                      : 1 080 pixels
    Display aspect ratio        : 16:9
    Frame rate mode             : Constant
    Frame rate                  : 23.976 (24000/1001) FPS
    Color space                 : YUV
    Chroma subsampling          : 4:2:0
    Bit depth                   : 8 bits
    Scan type                   : Progressive
    Bits/(Pixel*Frame)          : 0.110
    Stream size                 : 927 MiB (81%)
    Writing library             : x264 core 148
    Encoding settings           : cabac=1 / ref=4 / deblock=1:1:1 / analyse=0x3:0 / me=hex / subme=5 / psy=0 / mixed_ref=0 / me_range=16 / chroma_me=1 / trellis=0 / 8x8dct=1 / cqm=0 / deadzone=21,11 / fast_pskip=0 / chroma_qp_offset=0 / threads=8 / lookahead_threads=2 / sliced_threads=0 / nr=0 / decimate=1 / interlaced=0 / bluray_compat=0 / constrained_intra=0 / bframes=2 / b_pyramid=0 / b_adapt=1 / b_bias=0 / direct=1 / weightb=0 / open_gop=0 / weightp=0 / keyint=24 / keyint_min=13 / scenecut=40 / intra_refresh=0 / rc=crf / mbtree=0 / crf=19.0 / qcomp=0.60 / qpmin=0 / qpmax=69 / qpstep=4 / ip_ratio=1.40 / pb_ratio=1.30 / aq=1:1.00
    Default                     : Yes
    Forced                      : No
    Color range                 : Limited
    Color primaries             : BT.709
    Transfer characteristics    : BT.709
    Matrix coefficients         : BT.709
    
    Audio #1
    ID                          : 2
    Format                      : AC-3
    Format/Info                 : Audio Coding 3
    Commercial name             : Dolby Digital
    Codec ID                    : A_AC3
    Duration                    : 23 min 40 s
    Bit rate mode               : Constant
    Bit rate                    : 640 kb/s
    Channel(s)                  : 6 channels
    Channel layout              : L R C LFE Ls Rs
    Sampling rate               : 48.0 kHz
    Frame rate                  : 31.250 FPS (1536 SPF)
    Bit depth                   : 16 bits
    Compression mode            : Lossy
    Stream size                 : 108 MiB (9%)
    Language                    : German
    Service kind                : Complete Main
    Default                     : Yes
    Forced                      : No
    
    Audio #2
    ID                          : 3
    Format                      : AC-3
    Format/Info                 : Audio Coding 3
    Commercial name             : Dolby Digital
    Codec ID                    : A_AC3
    Duration                    : 23 min 40 s
    Bit rate mode               : Constant
    Bit rate                    : 640 kb/s
    Channel(s)                  : 2 channels
    Channel layout              : L R
    Sampling rate               : 48.0 kHz
    Frame rate                  : 31.250 FPS (1536 SPF)
    Bit depth                   : 16 bits
    Compression mode            : Lossy
    Stream size                 : 108 MiB (9%)
    Language                    : Japanese
    Service kind                : Complete Main
    Default                     : No
    Forced                      : No
    
    Text
    ID                          : 4
    Format                      : PGS
    Muxing mode                 : zlib
    Codec ID                    : S_HDMV/PGS
    Codec ID/Info               : Picture based subtitle format used on BDs/HD-DVDs
    Duration                    : 21 min 59 s
    Bit rate                    : 21.5 kb/s
    Count of elements           : 808
    Stream size                 : 3.39 MiB (0%)
    Language                    : German
    Default                     : No
    Forced                      : No
    
    Menu
    00:00:00.000                : en:(01)00:00:00:000
    00:02:37.991                : en:(02)00:02:37:991
    00:12:39.133                : en:(03)00:12:39:133
    00:20:11.710                : en:(04)00:20:11:710
    00:21:39.715                : en:(05)00:21:39:715
    00:22:11.663                : en:(06)00:22:11:663
    Code:
    Complete name               : Bungo.Stray.Dogs.E01.German.DTS.DL.1080p.BluRay.x264-Fuuko.mkv
    Format                      : Matroska
    Format version              : Version 4
    File size                   : 1.54 GiB
    Duration                    : 23 min 40 s
    Overall bit rate mode       : Variable
    Overall bit rate            : 9 296 kb/s
    Encoded date                : UTC 2019-08-10 23:12:50
    Writing application         : mkvmerge v10.0.0 ('To Drown In You') 64bit
    Writing library             : libebml v1.3.4 + libmatroska v1.4.5
    
    Video
    ID                          : 1
    Format                      : AVC
    Format/Info                 : Advanced Video Codec
    Format profile              : High@L4.1
    Format settings             : CABAC / 4 Ref Frames
    Format settings, CABAC      : Yes
    Format settings, ReFrames   : 4 frames
    Codec ID                    : V_MPEG4/ISO/AVC
    Duration                    : 23 min 39 s
    Bit rate                    : 5 480 kb/s
    Width                       : 1 920 pixels
    Height                      : 1 080 pixels
    Display aspect ratio        : 16:9
    Frame rate mode             : Constant
    Frame rate                  : 23.976 (24000/1001) FPS
    Color space                 : YUV
    Chroma subsampling          : 4:2:0
    Bit depth                   : 8 bits
    Scan type                   : Progressive
    Bits/(Pixel*Frame)          : 0.110
    Stream size                 : 927 MiB (59%)
    Writing library             : x264 core 148
    Encoding settings           : cabac=1 / ref=4 / deblock=1:1:1 / analyse=0x3:0 / me=hex / subme=5 / psy=0 / mixed_ref=0 / me_range=16 / chroma_me=1 / trellis=0 / 8x8dct=1 / cqm=0 / deadzone=21,11 / fast_pskip=0 / chroma_qp_offset=0 / threads=8 / lookahead_threads=2 / sliced_threads=0 / nr=0 / decimate=1 / interlaced=0 / bluray_compat=0 / constrained_intra=0 / bframes=2 / b_pyramid=0 / b_adapt=1 / b_bias=0 / direct=1 / weightb=0 / open_gop=0 / weightp=0 / keyint=24 / keyint_min=13 / scenecut=40 / intra_refresh=0 / rc=crf / mbtree=0 / crf=19.0 / qcomp=0.60 / qpmin=0 / qpmax=69 / qpstep=4 / ip_ratio=1.40 / pb_ratio=1.30 / aq=1:1.00
    Default                     : Yes
    Forced                      : No
    Color range                 : Limited
    Color primaries             : BT.709
    Transfer characteristics    : BT.709
    Matrix coefficients         : BT.709
    
    Audio #1
    ID                          : 2
    Format                      : DTS XLL
    Format/Info                 : Digital Theater Systems
    Commercial name             : DTS-HD Master Audio
    Codec ID                    : A_DTS
    Duration                    : 23 min 40 s
    Bit rate mode               : Variable
    Bit rate                    : 2 056 kb/s
    Channel(s)                  : 6 channels
    Channel layout              : C L R Ls Rs LFE
    Sampling rate               : 48.0 kHz
    Frame rate                  : 93.750 FPS (512 SPF)
    Bit depth                   : 16 bits
    Compression mode            : Lossless
    Stream size                 : 348 MiB (22%)
    Language                    : German
    Default                     : Yes
    Forced                      : No
    
    Audio #2
    ID                          : 3
    Format                      : DTS XLL
    Format/Info                 : Digital Theater Systems
    Commercial name             : DTS-HD Master Audio
    Codec ID                    : A_DTS
    Duration                    : 23 min 40 s
    Bit rate mode               : Variable
    Bit rate                    : 1 739 kb/s
    Channel(s)                  : 2 channels
    Channel layout              : L R
    Sampling rate               : 48.0 kHz
    Frame rate                  : 93.750 FPS (512 SPF)
    Bit depth                   : 16 bits
    Compression mode            : Lossless
    Stream size                 : 294 MiB (19%)
    Language                    : Japanese
    Default                     : No
    Forced                      : No
    
    Text
    ID                          : 4
    Format                      : PGS
    Muxing mode                 : zlib
    Codec ID                    : S_HDMV/PGS
    Codec ID/Info               : Picture based subtitle format used on BDs/HD-DVDs
    Duration                    : 21 min 59 s
    Bit rate                    : 21.5 kb/s
    Count of elements           : 808
    Stream size                 : 3.39 MiB (0%)
    Language                    : German
    Default                     : No
    Forced                      : No
    
    Menu
    00:00:00.000                : en:(01)00:00:00:000
    00:02:37.991                : en:(02)00:02:37:991
    00:12:39.133                : en:(03)00:12:39:133
    00:20:11.710                : en:(04)00:20:11:710
    00:21:39.715                : en:(05)00:21:39:715
    00:22:11.663                : en:(06)00:22:11:663
    [​IMG]
    404p - AAC [​IMG]
    720p - AC-3 [​IMG]
    1080p - AC-3 [​IMG]
    1080p - DTS-HD [​IMG]
    Geschützter Bereich
    Registriere dich oder logge dich ein, um den Inhalt sehen zu können
     
    Metaller777, Kurotaku, UppParia und 45 anderen gefällt das.