Wir verwenden Cookies, um deinen Aufenthalt auf Animes.so möglichst angenehm gestalten zu können. Mehr erfahren

Captain Tsubasa (2018)[Laufend][Ger-Jap-Dub][Ger-Sub][AC3|DTS-HD][720p|1080p][x264|x265][BluRay] - ABJ

Dieses Thema im Forum "Anime Serien (Deutsch)" wurde erstellt von Fuuko, 29. März 2021.

  1. Fuuko
    Fuuko

    Uploader Otaku König

    Registriert seit:
    19. Sep. 2018
    Beiträge:
    281
    Zustimmungen:
    19.379
    Captain Tsubasa (2018)
    Captain Tsubasa: The New Series


    [​IMG]

    [​IMG]
    [​IMG]
    Episoden: 28 / 52
    Spieldauer: 24 Min.
    Source: Deutsche Original BluRay
    Release by: Anime Bluray Junkies
    Format: mkv
    Sprache: Deutsch [2.0] | Japanisch [2.0]
    Untertitel: Deutsch (Forced) | Deutsch (Full)
    Audio: AC-3 [640 kb/s] | DTS-HD
    Auflösung : 1280x720-x264 | 1920x1080-x264 | 1920x1080-x265
    Größe: 900MB | 2600MB | 2600MB
    Code:
    Complete name               : Captain.Tsubasa.S01E01.German.DL.AC3.720p.BluRay.x264-ABJ.mkv
    Format                      : Matroska
    Format version              : Version 4
    File size                   : 881 MiB
    Duration                    : 24 min 0 s
    Overall bit rate            : 5 134 kb/s
    Encoded date                : UTC 2021-02-19 11:52:46
    Writing application         : mkvmerge v53.0.0 ('Fool's Gold') 64-bit
    Writing library             : libebml v1.4.1 + libmatroska v1.6.2 / Lavf58.42.101
    VERSION                     : 1.1
    
    Video
    ID                          : 1
    Format                      : AVC
    Format/Info                 : Advanced Video Codec
    Format profile              : High@L5
    Format settings             : CABAC / 12 Ref Frames
    Format settings, CABAC      : Yes
    Format settings, Reference  : 12 frames
    Codec ID                    : V_MPEG4/ISO/AVC
    Duration                    : 24 min 0 s
    Bit rate                    : 3 814 kb/s
    Width                       : 1 280 pixels
    Height                      : 720 pixels
    Display aspect ratio        : 16:9
    Frame rate mode             : Constant
    Frame rate                  : 23.976 (24000/1001) FPS
    Color space                 : YUV
    Chroma subsampling          : 4:2:0
    Bit depth                   : 8 bits
    Scan type                   : Progressive
    Bits/(Pixel*Frame)          : 0.173
    Stream size                 : 655 MiB (74%)
    Default                     : Yes
    Forced                      : No
    
    Audio #1
    ID                          : 2
    Format                      : AC-3
    Format/Info                 : Audio Coding 3
    Commercial name             : Dolby Digital
    Codec ID                    : A_AC3
    Duration                    : 24 min 0 s
    Bit rate mode               : Constant
    Bit rate                    : 640 kb/s
    Channel(s)                  : 2 channels
    Channel layout              : L R
    Sampling rate               : 48.0 kHz
    Frame rate                  : 31.250 FPS (1536 SPF)
    Compression mode            : Lossy
    Stream size                 : 110 MiB (12%)
    Title                       : Stereo
    Language                    : German
    Service kind                : Complete Main
    Default                     : Yes
    Forced                      : No
    
    Audio #2
    ID                          : 3
    Format                      : AC-3
    Format/Info                 : Audio Coding 3
    Commercial name             : Dolby Digital
    Codec ID                    : A_AC3
    Duration                    : 24 min 0 s
    Bit rate mode               : Constant
    Bit rate                    : 640 kb/s
    Channel(s)                  : 2 channels
    Channel layout              : L R
    Sampling rate               : 48.0 kHz
    Frame rate                  : 31.250 FPS (1536 SPF)
    Compression mode            : Lossy
    Stream size                 : 110 MiB (12%)
    Title                       : Stereo
    Language                    : Japanese
    Service kind                : Complete Main
    Default                     : No
    Forced                      : No
    
    Text #1
    ID                          : 4
    Format                      : PGS
    Muxing mode                 : zlib
    Codec ID                    : S_HDMV/PGS
    Codec ID/Info               : Picture based subtitle format used on BDs/HD-DVDs
    Duration                    : 23 min 47 s
    Bit rate                    : 4 857 b/s
    Count of elements           : 34
    Stream size                 : 847 KiB (0%)
    Language                    : German
    Default                     : Yes
    Forced                      : Yes
    
    Text #2
    ID                          : 5
    Format                      : PGS
    Muxing mode                 : zlib
    Codec ID                    : S_HDMV/PGS
    Codec ID/Info               : Picture based subtitle format used on BDs/HD-DVDs
    Duration                    : 23 min 49 s
    Bit rate                    : 63.8 kb/s
    Count of elements           : 602
    Stream size                 : 10.9 MiB (1%)
    Language                    : German
    Default                     : No
    Forced                      : No
    
    Menu
    00:00:00.000                : :Chapter 01
    00:03:08.396                : :Chapter 02
    00:14:01.882                : :Chapter 03
    00:22:19.379                : :Chapter 04
    00:23:48.844                : :Chapter 05
    Code:
    Complete name               : Captain.Tsubasa.S01E01.German.DL.DTS.1080p.BluRay.x264-ABJ.mkv
    Format                      : Matroska
    Format version              : Version 4
    File size                   : 2.50 GiB
    Duration                    : 24 min 0 s
    Overall bit rate mode       : Variable
    Overall bit rate            : 14.9 Mb/s
    Encoded date                : UTC 2021-02-24 11:14:02
    Writing application         : mkvmerge v53.0.0 ('Fool's Gold') 64-bit
    Writing library             : libebml v1.4.1 + libmatroska v1.6.2 / Lavf58.42.101
    VERSION                     : 1.1
    
    Video
    ID                          : 1
    Format                      : AVC
    Format/Info                 : Advanced Video Codec
    Format profile              : High@L5
    Format settings             : CABAC / 12 Ref Frames
    Format settings, CABAC      : Yes
    Format settings, Reference  : 12 frames
    Codec ID                    : V_MPEG4/ISO/AVC
    Duration                    : 24 min 0 s
    Bit rate                    : 10.6 Mb/s
    Width                       : 1 920 pixels
    Height                      : 1 080 pixels
    Display aspect ratio        : 16:9
    Frame rate mode             : Constant
    Frame rate                  : 23.976 (24000/1001) FPS
    Color space                 : YUV
    Chroma subsampling          : 4:2:0
    Bit depth                   : 8 bits
    Scan type                   : Progressive
    Bits/(Pixel*Frame)          : 0.213
    Stream size                 : 1.77 GiB (71%)
    Default                     : Yes
    Forced                      : No
    
    Audio #1
    ID                          : 2
    Format                      : DTS XLL
    Format/Info                 : Digital Theater Systems
    Commercial name             : DTS-HD Master Audio
    Codec ID                    : A_DTS
    Duration                    : 24 min 0 s
    Bit rate mode               : Variable
    Bit rate                    : 2 139 kb/s
    Channel(s)                  : 2 channels
    Channel layout              : L R
    Sampling rate               : 48.0 kHz
    Frame rate                  : 93.750 FPS (512 SPF)
    Bit depth                   : 24 bits
    Compression mode            : Lossless
    Stream size                 : 367 MiB (14%)
    Title                       : Stereo
    Language                    : German
    Default                     : Yes
    Forced                      : No
    
    Audio #2
    ID                          : 3
    Format                      : DTS XLL
    Format/Info                 : Digital Theater Systems
    Commercial name             : DTS-HD Master Audio
    Codec ID                    : A_DTS
    Duration                    : 24 min 0 s
    Bit rate mode               : Variable
    Bit rate                    : 2 142 kb/s
    Channel(s)                  : 2 channels
    Channel layout              : L R
    Sampling rate               : 48.0 kHz
    Frame rate                  : 93.750 FPS (512 SPF)
    Bit depth                   : 24 bits
    Compression mode            : Lossless
    Stream size                 : 368 MiB (14%)
    Title                       : Stereo
    Language                    : Japanese
    Default                     : No
    Forced                      : No
    
    Text #1
    ID                          : 4
    Format                      : PGS
    Muxing mode                 : zlib
    Codec ID                    : S_HDMV/PGS
    Codec ID/Info               : Picture based subtitle format used on BDs/HD-DVDs
    Duration                    : 23 min 47 s
    Bit rate                    : 4 857 b/s
    Count of elements           : 34
    Stream size                 : 847 KiB (0%)
    Language                    : German
    Default                     : Yes
    Forced                      : Yes
    
    Text #2
    ID                          : 5
    Format                      : PGS
    Muxing mode                 : zlib
    Codec ID                    : S_HDMV/PGS
    Codec ID/Info               : Picture based subtitle format used on BDs/HD-DVDs
    Duration                    : 23 min 49 s
    Bit rate                    : 63.8 kb/s
    Count of elements           : 602
    Stream size                 : 10.9 MiB (0%)
    Language                    : German
    Default                     : No
    Forced                      : No
    
    Menu
    00:00:00.000                : :Chapter 01
    00:03:08.396                : :Chapter 02
    00:14:01.882                : :Chapter 03
    00:22:19.379                : :Chapter 04
    00:23:48.844                : :Chapter 05
    Code:
    Complete name               : Captain.Tsubasa.S01E01.German.DL.DTS.1080p.BluRay.x265-ABJ.mkv
    Format                      : Matroska
    Format version              : Version 4
    File size                   : 2.47 GiB
    Duration                    : 24 min 0 s
    Overall bit rate mode       : Variable
    Overall bit rate            : 14.8 Mb/s
    Encoded date                : UTC 2021-02-20 10:03:40
    Writing application         : mkvmerge v52.0.0 ('Secret For The Mad') 64-bit
    Writing library             : libebml v1.4.1 + libmatroska v1.6.2
    Version                     : V1.1
    
    Video
    ID                          : 1
    Format                      : HEVC
    Format/Info                 : High Efficiency Video Coding
    Format profile              : Main@L6.2@High
    Codec ID                    : V_MPEGH/ISO/HEVC
    Duration                    : 24 min 0 s
    Width                       : 1 920 pixels
    Height                      : 1 080 pixels
    Display aspect ratio        : 16:9
    Frame rate mode             : Constant
    Frame rate                  : 23.976 (24000/1001) FPS
    Color space                 : YUV
    Chroma subsampling          : 4:2:0
    Bit depth                   : 8 bits
    Language                    : Japanese
    Default                     : Yes
    Forced                      : No
    
    Audio #1
    ID                          : 2
    Format                      : DTS XLL
    Format/Info                 : Digital Theater Systems
    Commercial name             : DTS-HD Master Audio
    Codec ID                    : A_DTS
    Duration                    : 24 min 0 s
    Bit rate mode               : Variable
    Channel(s)                  : 2 channels
    Channel layout              : L R
    Sampling rate               : 48.0 kHz
    Frame rate                  : 93.750 FPS (512 SPF)
    Bit depth                   : 24 bits
    Compression mode            : Lossless
    Language                    : German
    Default                     : Yes
    Forced                      : No
    
    Audio #2
    ID                          : 3
    Format                      : DTS XLL
    Format/Info                 : Digital Theater Systems
    Commercial name             : DTS-HD Master Audio
    Codec ID                    : A_DTS
    Duration                    : 24 min 0 s
    Bit rate mode               : Variable
    Channel(s)                  : 2 channels
    Channel layout              : L R
    Sampling rate               : 48.0 kHz
    Frame rate                  : 93.750 FPS (512 SPF)
    Bit depth                   : 24 bits
    Compression mode            : Lossless
    Language                    : Japanese
    Default                     : No
    Forced                      : No
    
    Text #1
    ID                          : 4
    Format                      : PGS
    Muxing mode                 : zlib
    Codec ID                    : S_HDMV/PGS
    Codec ID/Info               : Picture based subtitle format used on BDs/HD-DVDs
    Language                    : German
    Default                     : Yes
    Forced                      : Yes
    
    Text #2
    ID                          : 5
    Format                      : PGS
    Muxing mode                 : zlib
    Codec ID                    : S_HDMV/PGS
    Codec ID/Info               : Picture based subtitle format used on BDs/HD-DVDs
    Language                    : German
    Default                     : No
    Forced                      : No
    
    Menu
    00:00:00.000                : en:Chapter 01
    00:03:08.396                : en:Chapter 02
    00:14:01.882                : en:Chapter 03
    00:22:19.379                : en:Chapter 04
    00:23:48.844                : en:Chapter 05
    [​IMG]
    720p - x264 - AC-3 [​IMG]
    1080p - x264 - DTS-HD [​IMG]
    1080p - x265 - DTS-HD [​IMG]
    Geschützter Bereich
    Registriere dich oder logge dich ein, um den Inhalt sehen zu können
     

Diese Seite empfehlen