Wir verwenden Cookies, um deinen Aufenthalt auf Animes.so möglichst angenehm gestalten zu können. Mehr erfahren

Carole & Tuesday - Vocal Collection (S01 + S02 + OP + ED) [FLAC + MP3]

Dieses Thema im Forum "OST / Soundtracks" wurde erstellt von Ecos, 3. Jan. 2020.

  1. Ecos

    Ecos Freigeschalteter Otaku Otaku Novize

    Registriert seit:
    2. Sep. 2013
    Beiträge:
    23
    Zustimmungen:
    39
    Carole and Tuesday - Vocal Collection

    [​IMG]

    Will es übersichtlich halten, deswegen nur mein favorisiertes Cover. ;)

    Hier findet ihr folgendes:

    Carole & Tuesday - Vocal Collection Volume 1 - Flac + MP3
    Carole & Tuesday - Vocal Collection Volume 2 - MP3

    Carole & Tuesday - Kiss Me-Hold Me Now (Maxi-Single) - FLAC
    (OP + ED nur von Staffel 1/der ersten Hälfte der Serie)
    Weitere folgen je nach Nachfrage. x)

    FLAC --> ~1000 kb/s
    MP3 --> 320 kb/s

    Mediainfo:
    Audio
    Format : FLAC
    Format/Info : Free Lossless Audio Codec
    Duration : 3 min 34 s
    Bit rate mode : Variable
    Bit rate : 956 kb/s
    Channel(s) : 2 channels
    Channel layout : L R
    Sampling rate : 44.1 kHz
    Bit depth : 16 bits
    Compression mode : Lossless
    Stream size : 24.5 MiB (100%)
    Writing library : libFLAC 1.2.1 (UTC 2007-09-17)
    Audio
    Format : MPEG Audio
    Format version : Version 1
    Format profile : Layer 3
    Format settings : Joint stereo
    Duration : 3 min 35 s
    Bit rate mode : Constant
    Bit rate : 320 kb/s
    Channel(s) : 2 channels
    Sampling rate : 44.1 kHz
    Frame rate : 38.281 FPS (1152 SPF)
    Compression mode : Lossy
    Stream size : 8.21 MiB (97%)
    Writing library : LAME3.100
    Encoding settings : -m j -V 4 -q 3 -lowpass 20.5

    [​IMG]
    Geschützter Bereich
    Registriere dich oder logge dich ein, um den Inhalt sehen zu können