Wir verwenden Cookies, um deinen Aufenthalt auf Animes.so möglichst angenehm gestalten zu können. Mehr erfahren

Castlevania S02 [Ger-Eng-Jap-Dub][Ger-Eng-Sub][720p|1080p][WebRip] - Netflix

Dieses Thema im Forum "Zeichentrick Serien" wurde erstellt von Ta@, 26. Okt. 2018.

  1. Ta@

    Ta@ Treues Mitglied Seelenverkäufer

    Registriert seit:
    7. Juli 2016
    Beiträge:
    399
    Zustimmungen:
    10.379
    Castlevania S02


    [​IMG]
    [​IMG]

    Ein Vampirjäger verteidigt eine Stadt vor Monstern aus dem Jenseits, die unter der Kontrolle von Dracula stehen. In Anlehnung an den Videospielklassiker.

    Folgen: 8/8
    Größe pro Folge: ~625 MB/~1350 MB
    Folgendauer: ~25 Min
    Releaser: Ta@
    Art: Lizenzrelease
    Sprache: Japanisch, Deutsch, Englisch
    Untertitel: Deutsch, Englisch
    Jahr: 2018
    Genres: Action, Fantasy, Horror
    Auflösung: 1280x720/1920x1080
    Format: MKV
    Quelle: WebRip
    Videocodec: x264
    Farbtiefe: 8Bit
    Audiocodec: AC3
    Publisher: Netflix
    Hoster: Share-Online

    [​IMG]
    Code:
    General Complete name : [Ta@]Castlevania_S02E01_[Web,720p,AC3].mkv Format : Matroska Format version : Version 4 File size : 982 MiB Duration : 25 min 12 s Overall bit rate mode : Variable Overall bit rate : 5 448 kb/s Encoded date : UTC 2018-10-26 10:19:31 Writing application : mkvmerge v26.0.0 ('In The Game') 64-bit Writing library : libebml v1.3.6 + libmatroska v1.4.9 Video ID : 1 Format : AVC Format/Info : Advanced Video Codec Format profile : Main@L3.1 Format settings : CABAC / 3 Ref Frames Format settings, CABAC : Yes Format settings, RefFrames : 3 frames Codec ID : V_MPEG4/ISO/AVC Duration : 25 min 11 s Bit rate mode : Variable Bit rate : 4 420 kb/s Maximum bit rate : 6 630 kb/s Width : 1 280 pixels Height : 720 pixels Display aspect ratio : 16:9 Frame rate mode : Constant Frame rate : 23.976 (24000/1001) FPS Color space : YUV Chroma subsampling : 4:2:0 Bit depth : 8 bits Scan type : Progressive Bits/(Pixel*Frame) : 0.200 Stream size : 774 MiB (79%) Writing library : x264 core 148 r2715 7e75228 Encoding settings : cabac=1 / ref=3 / deblock=1:0:0 / analyse=0x1:0x111 / me=umh / subme=10 / psy=1 / psy_rd=1.00:0.00 / mixed_ref=1 / me_range=24 / chroma_me=1 / trellis=2 / 8x8dct=0 / cqm=0 / deadzone=21,11 / fast_pskip=1 / chroma_qp_offset=-2 / threads=8 / lookahead_threads=1 / sliced_threads=0 / nr=0 / decimate=1 / interlaced=0 / bluray_compat=0 / stitchable=1 / constrained_intra=0 / bframes=2 / b_pyramid=0 / b_adapt=2 / b_bias=0 / direct=3 / weightb=1 / open_gop=0 / weightp=2 / keyint=48 / keyint_min=25 / scenecut=0 / intra_refresh=0 / rc_lookahead=48 / rc=2pass / mbtree=1 / bitrate=4420 / ratetol=1.0 / qcomp=0.50 / qpmin=6 / qpmax=51 / qpstep=4 / cplxblur=20.0 / qblur=0.5 / vbv_maxrate=6630 / vbv_bufsize=8840 / nal_hrd=vbr / filler=0 / ip_ratio=1.40 / aq=1:1.00 Default : Yes Forced : No Audio #1 ID : 2 Format : AC-3 Format/Info : Audio Coding 3 Commercial name : Dolby Digital Codec ID : A_AC3 Duration : 25 min 12 s Bit rate mode : Constant Bit rate : 384 kb/s Channel(s) : 6 channels Channel layout : L R C LFE Ls Rs Sampling rate : 48.0 kHz Frame rate : 31.250 FPS (1536 SPF) Bit depth : 16 bits Compression mode : Lossy Stream size : 69.2 MiB (7%) Language : English Service kind : Complete Main Default : No Forced : No Audio #2 ID : 3 Format : AC-3 Format/Info : Audio Coding 3 Commercial name : Dolby Digital Codec ID : A_AC3 Duration : 25 min 12 s Bit rate mode : Constant Bit rate : 384 kb/s Channel(s) : 6 channels Channel layout : L R C LFE Ls Rs Sampling rate : 48.0 kHz Frame rate : 31.250 FPS (1536 SPF) Bit depth : 16 bits Compression mode : Lossy Stream size : 69.2 MiB (7%) Language : English Service kind : Complete Main Default : Yes Forced : No Audio #3 ID : 4 Format : AC-3 Format/Info : Audio Coding 3 Commercial name : Dolby Digital Codec ID : A_AC3 Duration : 25 min 12 s Bit rate mode : Constant Bit rate : 384 kb/s Channel(s) : 6 channels Channel layout : L R C LFE Ls Rs Sampling rate : 48.0 kHz Frame rate : 31.250 FPS (1536 SPF) Bit depth : 16 bits Compression mode : Lossy Stream size : 69.2 MiB (7%) Language : English Service kind : Complete Main Default : No Forced : No Text #1 ID : 5 Format : ASS Codec ID : S_TEXT/ASS Codec ID/Info : Advanced Sub Station Alpha Duration : 24 min 41 s Bit rate : 1 b/s Count of elements : 5 Compression mode : Lossless Stream size : 186 Bytes (0%) Language : German Default : Yes Forced : No Text #2 ID : 6 Format : ASS Codec ID : S_TEXT/ASS Codec ID/Info : Advanced Sub Station Alpha Duration : 24 min 41 s Bit rate : 84 b/s Count of elements : 243 Compression mode : Lossless Stream size : 15.3 KiB (0%) Language : German Default : No Forced : No Text #3 ID : 7 Format : ASS Codec ID : S_TEXT/ASS Codec ID/Info : Advanced Sub Station Alpha Duration : 20 min 39 s Bit rate : 96 b/s Count of elements : 238 Compression mode : Lossless Stream size : 14.6 KiB (0%) Language : German Default : No Forced : No ​
    Code:
    General Complete name : [Ta@]Castlevania_S02E01_[Web,1080p,AC3].mkv Format : Matroska Format version : Version 4 File size : 1.62 GiB Duration : 25 min 12 s Overall bit rate mode : Variable Overall bit rate : 9 216 kb/s Encoded date : UTC 2018-10-26 10:10:19 Writing application : mkvmerge v26.0.0 ('In The Game') 64-bit Writing library : libebml v1.3.6 + libmatroska v1.4.9 Video ID : 1 Format : AVC Format/Info : Advanced Video Codec Format profile : Main@L4 Format settings : CABAC / 3 Ref Frames Format settings, CABAC : Yes Format settings, RefFrames : 3 frames Codec ID : V_MPEG4/ISO/AVC Duration : 25 min 11 s Bit rate mode : Variable Bit rate : 7 500 kb/s Maximum bit rate : 11.2 Mb/s Width : 1 920 pixels Height : 1 080 pixels Display aspect ratio : 16:9 Frame rate mode : Constant Frame rate : 23.976 (24000/1001) FPS Color space : YUV Chroma subsampling : 4:2:0 Bit depth : 8 bits Scan type : Progressive Bits/(Pixel*Frame) : 0.151 Stream size : 1.28 GiB (79%) Writing library : x264 core 148 r2715 7e75228 Encoding settings : cabac=1 / ref=3 / deblock=1:0:0 / analyse=0x1:0x111 / me=umh / subme=10 / psy=1 / psy_rd=1.00:0.00 / mixed_ref=1 / me_range=24 / chroma_me=1 / trellis=2 / 8x8dct=0 / cqm=0 / deadzone=21,11 / fast_pskip=1 / chroma_qp_offset=-2 / threads=8 / lookahead_threads=1 / sliced_threads=0 / nr=0 / decimate=1 / interlaced=0 / bluray_compat=0 / stitchable=1 / constrained_intra=0 / bframes=2 / b_pyramid=0 / b_adapt=2 / b_bias=0 / direct=3 / weightb=1 / open_gop=0 / weightp=2 / keyint=48 / keyint_min=25 / scenecut=0 / intra_refresh=0 / rc_lookahead=48 / rc=2pass / mbtree=1 / bitrate=7500 / ratetol=1.0 / qcomp=0.50 / qpmin=6 / qpmax=51 / qpstep=4 / cplxblur=20.0 / qblur=0.5 / vbv_maxrate=11250 / vbv_bufsize=15000 / nal_hrd=vbr / filler=0 / ip_ratio=1.40 / aq=1:1.00 Default : Yes Forced : No Audio #1 ID : 2 Format : E-AC-3 Format/Info : Enhanced AC-3 Commercial name : Dolby Digital Plus Codec ID : A_EAC3 Duration : 25 min 12 s Bit rate mode : Constant Bit rate : 640 kb/s Channel(s) : 6 channels Channel layout : L R C LFE Ls Rs Sampling rate : 48.0 kHz Frame rate : 31.250 FPS (1536 SPF) Compression mode : Lossy Stream size : 115 MiB (7%) Language : English Service kind : Complete Main Default : No Forced : No Audio #2 ID : 3 Format : E-AC-3 Format/Info : Enhanced AC-3 Commercial name : Dolby Digital Plus Codec ID : A_EAC3 Duration : 25 min 12 s Bit rate mode : Constant Bit rate : 640 kb/s Channel(s) : 6 channels Channel layout : L R C LFE Ls Rs Sampling rate : 48.0 kHz Frame rate : 31.250 FPS (1536 SPF) Compression mode : Lossy Stream size : 115 MiB (7%) Language : English Service kind : Complete Main Default : Yes Forced : No Audio #3 ID : 4 Format : E-AC-3 Format/Info : Enhanced AC-3 Commercial name : Dolby Digital Plus Codec ID : A_EAC3 Duration : 25 min 12 s Bit rate mode : Constant Bit rate : 640 kb/s Channel(s) : 6 channels Channel layout : L R C LFE Ls Rs Sampling rate : 48.0 kHz Frame rate : 31.250 FPS (1536 SPF) Compression mode : Lossy Stream size : 115 MiB (7%) Language : English Service kind : Complete Main Default : No Forced : No Text #1 ID : 5 Format : ASS Codec ID : S_TEXT/ASS Codec ID/Info : Advanced Sub Station Alpha Duration : 24 min 41 s Bit rate : 1 b/s Count of elements : 5 Compression mode : Lossless Stream size : 186 Bytes (0%) Language : German Default : Yes Forced : No Text #2 ID : 6 Format : ASS Codec ID : S_TEXT/ASS Codec ID/Info : Advanced Sub Station Alpha Duration : 24 min 41 s Bit rate : 84 b/s Count of elements : 243 Compression mode : Lossless Stream size : 15.3 KiB (0%) Language : German Default : No Forced : No Text #3 ID : 7 Format : ASS Codec ID : S_TEXT/ASS Codec ID/Info : Advanced Sub Station Alpha Duration : 20 min 39 s Bit rate : 96 b/s Count of elements : 238 Compression mode : Lossless Stream size : 14.6 KiB (0%) Language : German Default : No Forced : No ​

    Anmerkung:
    Die Audiospur der 720p hat eine Bitrate von 384kbps und die Audiospur der 1080p hat eine Bitrate von 640kpbs.

    720p:[​IMG]1080p:[​IMG]

    Geschützter Bereich
    Registriere dich oder logge dich ein, um den Inhalt sehen zu können
     
    Smitecrawler, ch1w4y, thanner und 12 anderen gefällt das.