Welcome to our Community
Wanting to join the rest of our members? Feel free to sign up today.
Sign up

Classroom of the Elite [Laufend][Jap-Ger-Eng-Dub][Ger-Eng-Sub][1080p][x264][WebDL] - CR

Kleinmike

Uploader
Otaku König
21 März 2021
219
2.962
93
Classroom of the Elite
ようこそ実力至上主義の教室へ | Youkoso Jitsuryoku Shijou Shugi no Kyoushitsu e

12495.webp


Beschreibung:
Die fördernde weiterführende Schule der Stadt Tokio ist eine hochmoderne und angesehene Oberschule. Die Schüler dort genießen große Freiheiten; so dürfen sie sich nach Wunsch kleiden und jegliche persönliche Gegenstände mit zur Schule bringen. Doch auch wenn dieser Ort wie ein Paradies erscheint, gibt es eine Schattenseite, denn diese Annehmlichkeiten werden nur den vorbildlichen Schülern zuteil.
Kiyotaka Ayanokouji, ein eher zurückhaltender Schüler der D-Klasse, die aus sämtlichen „schlechten“ Schülern besteht, will eigentlich nur ohne großartig auf sich aufmerksam zu machen die Schulbank drücken. Als er jedoch die kühne Suzune Horikita und die lebensfrohe Kikyou Kushida kennenlernt, beginnt sich seine Situation zu wandeln und mehr oder weniger unfreiwillig hilft er ihnen, ihre eigenen Ziele zu erreichen.
Quelle: anisearch
[/QUOTE]

Episoden: 12/12
Größe: ~1400MB
Sprache: Japanisch | Deutsch | Englisch
Untertitel: Deutsch | Englisch
Jahr: 2017
Genres: Drama, Alltagsleben, Ganbatte, Komödie, Psychodrama
Auflösung: 1920x1080
Format: MKV
Videocodec: AVC
Farbtiefe: 8bit
Audiocodec: AAC LC
Publisher: Crunchyroll
Hoster: DDownload | Uploaded

Mediainfo:
Code:
Format                                   : Matroska
Format version                           : Version 4
File size                                : 1.40 GiB
Duration                                 : 24 min 10 s
Overall bit rate                         : 8 297 kb/s
Encoded date                             : UTC 2022-08-04 11:03:56
Writing application                      : mkvmerge v59.0.0 ('Shining Star') 64-bit
Writing library                          : libebml v1.4.2 + libmatroska v1.6.4

Video
ID                                       : 1
Format                                   : AVC
Format/Info                              : Advanced Video Codec
Format profile                           : [email protected]
Format settings                          : CABAC / 4 Ref Frames
Format settings, CABAC                   : Yes
Format settings, Reference frames        : 4 frames
Format settings, GOP                     : M=1, N=48
Codec ID                                 : V_MPEG4/ISO/AVC
Duration                                 : 24 min 0 s
Bit rate                                 : 8 000 kb/s
Width                                    : 1 920 pixels
Height                                   : 1 080 pixels
Display aspect ratio                     : 16:9
Frame rate mode                          : Constant
Frame rate                               : 23.976 (24000/1001) FPS
Color space                              : YUV
Chroma subsampling                       : 4:2:0
Bit depth                                : 8 bits
Scan type                                : Progressive
Bits/(Pixel*Frame)                       : 0.161
Stream size                              : 1.34 GiB (95%)
Writing library                          : x264 core 142
Encoding settings                        : cabac=1 / ref=4 / deblock=1:1:1 / analyse=0x3:0x113 / me=umh / subme=8 / psy=1 / psy_rd=0.40:0.00 / mixed_ref=1 / me_range=16 / chroma_me=1 / trellis=1 / 8x8dct=1 / cqm=0 / deadzone=21,11 / fast_pskip=1 / chroma_qp_offset=-2 / threads=12 / lookahead_threads=2 / sliced_threads=0 / nr=0 / decimate=1 / interlaced=0 / bluray_compat=0 / constrained_intra=0 / bframes=0 / weightp=2 / keyint=96 / keyint_min=48 / scenecut=40 / intra_refresh=0 / rc_lookahead=48 / rc=2pass / mbtree=1 / bitrate=8000 / ratetol=1.0 / qcomp=0.60 / qpmin=0 / qpmax=69 / qpstep=4 / cplxblur=20.0 / qblur=0.5 / vbv_maxrate=12000 / vbv_bufsize=18000 / nal_hrd=none / filler=0 / ip_ratio=1.40 / aq=1:0.60
Default                                  : Yes
Forced                                   : No

Audio #1
ID                                       : 2
Format                                   : AAC LC
Format/Info                              : Advanced Audio Codec Low Complexity
Codec ID                                 : A_AAC-2
Duration                                 : 24 min 0 s
Bit rate                                 : 128 kb/s
Channel(s)                               : 2 channels
Channel layout                           : L R
Sampling rate                            : 44.1 kHz
Frame rate                               : 43.066 FPS (1024 SPF)
Compression mode                         : Lossy
Stream size                              : 22.0 MiB (2%)
Language                                 : German
Default                                  : Yes
Forced                                   : No

Audio #2
ID                                       : 3
Format                                   : AAC LC
Format/Info                              : Advanced Audio Codec Low Complexity
Codec ID                                 : A_AAC-2
Duration                                 : 24 min 10 s
Bit rate                                 : 128 kb/s
Channel(s)                               : 2 channels
Channel layout                           : L R
Sampling rate                            : 44.1 kHz
Frame rate                               : 43.066 FPS (1024 SPF)
Compression mode                         : Lossy
Stream size                              : 22.1 MiB (2%)
Language                                 : English
Default                                  : No
Forced                                   : No

Audio #3
ID                                       : 4
Format                                   : AAC LC
Format/Info                              : Advanced Audio Codec Low Complexity
Codec ID                                 : A_AAC-2
Duration                                 : 24 min 0 s
Bit rate                                 : 128 kb/s
Channel(s)                               : 2 channels
Channel layout                           : L R
Sampling rate                            : 44.1 kHz
Frame rate                               : 43.066 FPS (1024 SPF)
Compression mode                         : Lossy
Stream size                              : 22.0 MiB (2%)
Language                                 : Japanese
Default                                  : No
Forced                                   : No

Text #1
ID                                       : 5
Format                                   : ASS
Codec ID                                 : S_TEXT/ASS
Codec ID/Info                            : Advanced Sub Station Alpha
Duration                                 : 23 min 57 s
Bit rate                                 : 4 b/s
Count of elements                        : 9
Compression mode                         : Lossless
Stream size                              : 812 Bytes (0%)
Title                                    : English Forced
Language                                 : English
Default                                  : No
Forced                                   : No

Text #2
ID                                       : 6
Format                                   : ASS
Codec ID                                 : S_TEXT/ASS
Codec ID/Info                            : Advanced Sub Station Alpha
Duration                                 : 23 min 46 s
Bit rate                                 : 163 b/s
Count of elements                        : 413
Compression mode                         : Lossless
Stream size                              : 28.5 KiB (0%)
Title                                    : German Full
Language                                 : German
Default                                  : Yes
Forced                                   : No

Text #3
ID                                       : 7
Format                                   : ASS
Codec ID                                 : S_TEXT/ASS
Codec ID/Info                            : Advanced Sub Station Alpha
Duration                                 : 23 min 59 s
Bit rate                                 : 154 b/s
Count of elements                        : 393
Compression mode                         : Lossless
Stream size                              : 27.2 KiB (0%)
Title                                    : English Full
Language                                 : English
Default                                  : No
Forced                                   : No

Status:
1080p:
9DF75A1534.png


To view the content, you need to Sign In or Register.
 
Zuletzt bearbeitet: