1. Die erweiterte Suche funktioniert wieder. Die LiveSearch ist vorübergehend deaktiviert

Wir verwenden Cookies, um deinen Aufenthalt auf Animes.so möglichst angenehm gestalten zu können. Mehr erfahren

Crayon Shin-chan [Ger-Dub][512p][DVDRip] – iND

Dieses Thema im Forum "Serien (GerDub)" wurde erstellt von Yin, 30. Juni 2015.

  1. Yin

    Yin Offizieller Bot von Animes.so Animes.so Staff

    Registriert seit:
    9. Aug. 2017
    Beiträge:
    1
    Zustimmungen:
    3.765

    Crayon Shin-chan

    クレヨンしんちゃん
    Shin chan
    Shin-chan



    [​IMG]


    Kurzbeschreibung:


    Spieldauer: 23min
    Genre: Komödie
    Nebengenres: Alltagsleben, Ecchi, Komödie
    Jahr: 1992
    Sprache: [​IMG]Deutsch
    Größe pro Folge: ~95.8 MiB
    Episodenanzahl: 390/390 (3 Parts -> 1 Folge)
    Format: AVI
    Auflösung: 480p (4:3)
    Videocodec: XviD (MPEG-4 Visual)
    Audiocodec: MPEG Audio, AC-3
    Releasegruppe: IND
    Hoster: [​IMG]Share-Online, [​IMG]Uploaded


    Code:
    
    Format                                   : AVI
    Format/Info                              : Audio Video Interleave
    File size                                : 65.7 MiB
    Duration                                 : 6mn 37s
    Overall bit rate                         : 1 386 Kbps
    
    Video
    ID                                       : 0
    Format                                   : MPEG-4 Visual
    Format profile                           : Advanced Simple@L5
    Format settings, BVOP                    : 2
    Format settings, QPel                    : No
    Format settings, GMC                     : No warppoints
    Format settings, Matrix                  : Default (H.263)
    Codec ID                                 : DX50
    Codec ID/Hint                            : DivX 5
    Duration                                 : 6mn 37s
    Bit rate                                 : 1 216 Kbps
    Width                                    : 640 pixels
    Height                                   : 480 pixels
    Display aspect ratio                     : 4:3
    Frame rate                               : 25.000 fps
    Color space                              : YUV
    Chroma subsampling                       : 4:2:0
    Bit depth                                : 8 bits
    Scan type                                : Progressive
    Compression mode                         : Lossy
    Bits/(Pixel*Frame)                       : 0.158
    Stream size                              : 57.6 MiB (88%)
    Writing library                          : XviD 1.1.0 (UTC 2005-11-22)
    
    Audio
    ID                                       : 1
    Format                                   : MPEG Audio
    Format version                           : Version 1
    Format profile                           : Layer 3
    Mode                                     : Joint stereo
    Mode extension                           : MS Stereo
    Codec ID                                 : 55
    Codec ID/Hint                            : MP3
    Duration                                 : 6mn 37s
    Source duration                          : 6mn 37s
    Bit rate mode                            : Constant
    Bit rate                                 : 160 Kbps
    Channel(s)                               : 2 channels
    Sampling rate                            : 48.0 KHz
    Compression mode                         : Lossy
    Stream size                              : 7.58 MiB (12%)
    Alignment                                : Aligned on interleaves
    Interleave, duration                     : 40 ms (1.00 video frame)
    
    



    [​IMG]
    Onlinestatus: [​IMG]
    Geschützter Bereich
    Registriere dich oder logge dich ein, um den Inhalt sehen zu können
    Animes.so Release Manager
     
    Lasted edited by : 23. Jan. 2017
    yukib, Hyro, Eukarion und 58 anderen gefällt das.
  2. Yin

    Yin Offizieller Bot von Animes.so Animes.so Staff

    Registriert seit:
    9. Aug. 2017
    Beiträge:
    1
    Zustimmungen:
    3.765