Wir verwenden Cookies, um deinen Aufenthalt auf Animes.so möglichst angenehm gestalten zu können. Mehr erfahren

Cupcake and Dino: General Services | Cupcake und Dino: Dienste aller Art [Ger-Eng-Dub][Ger-Eng-Sub][720p|1080p][WebRip] - Netflix

Dieses Thema im Forum "Zeichentrick Serien" wurde erstellt von Ta@, 28. Juli 2018.

  1. Ta@

    Ta@ Erfahrener Otaku Otaku König

    Registriert seit:
    7. Juli 2016
    Beiträge:
    251
    Zustimmungen:
    5.063
    Cupcake & Dino: General Services
    Cupcake und Dino: Dienste aller Art

    [​IMG]
    [​IMG]
    Ein geschäftstüchtiger Cupcake und sein fröhlicher Bruder, ein Dino, erledigen Dienste aller Art, um Freunden und Fremden in ihrer außergewöhnlichen Stadt zu helfen.


    Folgen: 13/13
    Größe pro Folge: ~350 MB/~830 MB
    Folgendauer: ~23 Min
    Releaser: Ta@
    Art: Lizenzrelease
    Sprache: Deutsch, Englisch
    Untertitel: Deutsch, Englisch
    Auflösung: 1280x720/1920x1080
    Format: MKV
    Quelle: WebRip
    Videocodec: x264
    Farbtiefe: 8Bit
    Audiocodec: AC3
    Hoster: Share-Online

    [​IMG]
    Code:
    General Complete name : Cupcake.und.Dino.-.Dienste.aller.Art.S01.E01.German.AC3.DL.720p.WebRip.x264-Ta@.mkv Format : Matroska Format version : Version 4 / Version 2 File size : 429 MiB Duration : 23 min 12 s Overall bit rate mode : Variable Overall bit rate : 2 584 kb/s Encoded date : UTC 2018-07-28 08:38:55 Writing application : mkvmerge v21.0.0 ('Tardigrades Will Inherit The Earth') 32-bit Writing library : libebml v1.3.5 + libmatroska v1.4.8 Video ID : 1 Format : AVC Format/Info : Advanced Video Codec Format profile : Main@L3.1 Format settings : CABAC / 3 Ref Frames Format settings, CABAC : Yes Format settings, RefFrames : 3 frames Codec ID : V_MPEG4/ISO/AVC Duration : 23 min 12 s Bit rate mode : Variable Bit rate : 1 870 kb/s Maximum bit rate : 2 805 kb/s Width : 1 280 pixels Height : 720 pixels Display aspect ratio : 16:9 Frame rate mode : Constant Frame rate : 23.976 (24000/1001) FPS Color space : YUV Chroma subsampling : 4:2:0 Bit depth : 8 bits Scan type : Progressive Bits/(Pixel*Frame) : 0.085 Stream size : 301 MiB (70%) Writing library : x264 core 148 r2714 2daf636 Encoding settings : cabac=1 / ref=3 / deblock=1:0:0 / analyse=0x1:0x111 / me=umh / subme=10 / psy=1 / psy_rd=1.00:0.00 / mixed_ref=1 / me_range=24 / chroma_me=1 / trellis=2 / 8x8dct=0 / cqm=0 / deadzone=21,11 / fast_pskip=1 / chroma_qp_offset=-2 / threads=6 / lookahead_threads=1 / sliced_threads=0 / nr=0 / decimate=1 / interlaced=0 / bluray_compat=0 / stitchable=1 / constrained_intra=0 / bframes=2 / b_pyramid=0 / b_adapt=2 / b_bias=0 / direct=3 / weightb=1 / open_gop=0 / weightp=2 / keyint=48 / keyint_min=25 / scenecut=0 / intra_refresh=0 / rc_lookahead=48 / rc=2pass / mbtree=1 / bitrate=1870 / ratetol=1.0 / qcomp=0.50 / qpmin=6 / qpmax=51 / qpstep=4 / cplxblur=20.0 / qblur=0.5 / vbv_maxrate=2805 / vbv_bufsize=3740 / nal_hrd=vbr / filler=0 / ip_ratio=1.40 / aq=1:1.00 Default : Yes Forced : No Audio #1 ID : 2 Format : AC-3 Format/Info : Audio Coding 3 Codec ID : A_AC3 Duration : 23 min 12 s Bit rate mode : Constant Bit rate : 384 kb/s Channel(s) : 6 channels Channel positions : Front: L C R, Side: L R, LFE Sampling rate : 48.0 kHz Frame rate : 31.250 FPS (1536 SPF) Bit depth : 16 bits Compression mode : Lossy Stream size : 63.8 MiB (15%) Title : Deutsch Language : German Service kind : Complete Main Default : Yes Forced : No Audio #2 ID : 3 Format : AC-3 Format/Info : Audio Coding 3 Codec ID : A_AC3 Duration : 23 min 12 s Bit rate mode : Constant Bit rate : 384 kb/s Channel(s) : 6 channels Channel positions : Front: L C R, Side: L R, LFE Sampling rate : 48.0 kHz Frame rate : 31.250 FPS (1536 SPF) Bit depth : 16 bits Compression mode : Lossy Stream size : 63.8 MiB (15%) Title : Englisch Language : English Service kind : Complete Main Default : No Forced : No Text #1 ID : 4 Format : UTF-8 Codec ID : S_TEXT/UTF8 Codec ID/Info : UTF-8 Plain Text Duration : 11 min 9 s Bit rate : 1 b/s Count of elements : 3 Stream size : 102 Bytes (0%) Title : Deutsch [Forced] Language : German Default : Yes Forced : Yes Text #2 ID : 5 Format : UTF-8 Codec ID : S_TEXT/UTF8 Codec ID/Info : UTF-8 Plain Text Duration : 21 min 43 s Bit rate : 74 b/s Count of elements : 336 Stream size : 11.9 KiB (0%) Title : Deutsch [Full] Language : German Default : No Forced : No Text #3 ID : 6 Format : UTF-8 Codec ID : S_TEXT/UTF8 Codec ID/Info : UTF-8 Plain Text Duration : 21 min 36 s Bit rate : 100 b/s Count of elements : 475 Stream size : 15.9 KiB (0%) Title : Englisch [SDH] Language : English Default : No Forced : No ​
    Code:
    General Complete name : Cupcake.und.Dino.-.Dienste.aller.Art.S01.E01.German.AC3.DL.1080p.WebRip.x264-Ta@.mkv Format : Matroska Format version : Version 4 / Version 2 File size : 872 MiB Duration : 23 min 12 s Overall bit rate mode : Variable Overall bit rate : 5 253 kb/s Encoded date : UTC 2018-07-28 08:48:38 Writing application : mkvmerge v21.0.0 ('Tardigrades Will Inherit The Earth') 32-bit Writing library : libebml v1.3.5 + libmatroska v1.4.8 Video ID : 1 Format : AVC Format/Info : Advanced Video Codec Format profile : Main@L4 Format settings : CABAC / 3 Ref Frames Format settings, CABAC : Yes Format settings, RefFrames : 3 frames Codec ID : V_MPEG4/ISO/AVC Duration : 23 min 12 s Bit rate mode : Variable Bit rate : 4 640 kb/s Maximum bit rate : 6 960 kb/s Width : 1 920 pixels Height : 1 080 pixels Display aspect ratio : 16:9 Frame rate mode : Constant Frame rate : 23.976 (24000/1001) FPS Color space : YUV Chroma subsampling : 4:2:0 Bit depth : 8 bits Scan type : Progressive Bits/(Pixel*Frame) : 0.093 Stream size : 744 MiB (85%) Writing library : x264 core 148 r2714 2daf636 Encoding settings : cabac=1 / ref=3 / deblock=1:0:0 / analyse=0x1:0x111 / me=umh / subme=10 / psy=1 / psy_rd=1.00:0.00 / mixed_ref=1 / me_range=24 / chroma_me=1 / trellis=2 / 8x8dct=0 / cqm=0 / deadzone=21,11 / fast_pskip=1 / chroma_qp_offset=-2 / threads=8 / lookahead_threads=1 / sliced_threads=0 / nr=0 / decimate=1 / interlaced=0 / bluray_compat=0 / stitchable=1 / constrained_intra=0 / bframes=2 / b_pyramid=0 / b_adapt=2 / b_bias=0 / direct=3 / weightb=1 / open_gop=0 / weightp=2 / keyint=48 / keyint_min=25 / scenecut=0 / intra_refresh=0 / rc_lookahead=48 / rc=2pass / mbtree=1 / bitrate=4640 / ratetol=1.0 / qcomp=0.50 / qpmin=6 / qpmax=51 / qpstep=4 / cplxblur=20.0 / qblur=0.5 / vbv_maxrate=6960 / vbv_bufsize=9280 / nal_hrd=vbr / filler=0 / ip_ratio=1.40 / aq=1:1.00 Default : Yes Forced : No Audio #1 ID : 2 Format : AC-3 Format/Info : Audio Coding 3 Codec ID : A_AC3 Duration : 23 min 12 s Bit rate mode : Constant Bit rate : 384 kb/s Channel(s) : 6 channels Channel positions : Front: L C R, Side: L R, LFE Sampling rate : 48.0 kHz Frame rate : 31.250 FPS (1536 SPF) Bit depth : 16 bits Compression mode : Lossy Stream size : 63.8 MiB (7%) Title : Deutsch Language : German Service kind : Complete Main Default : Yes Forced : No Audio #2 ID : 3 Format : AC-3 Format/Info : Audio Coding 3 Codec ID : A_AC3 Duration : 23 min 12 s Bit rate mode : Constant Bit rate : 384 kb/s Channel(s) : 6 channels Channel positions : Front: L C R, Side: L R, LFE Sampling rate : 48.0 kHz Frame rate : 31.250 FPS (1536 SPF) Bit depth : 16 bits Compression mode : Lossy Stream size : 63.8 MiB (7%) Title : Englisch Language : English Service kind : Complete Main Default : No Forced : No Text #1 ID : 4 Format : UTF-8 Codec ID : S_TEXT/UTF8 Codec ID/Info : UTF-8 Plain Text Duration : 11 min 9 s Bit rate : 1 b/s Count of elements : 3 Stream size : 102 Bytes (0%) Title : Deutsch [Forced] Language : German Default : Yes Forced : Yes Text #2 ID : 5 Format : UTF-8 Codec ID : S_TEXT/UTF8 Codec ID/Info : UTF-8 Plain Text Duration : 21 min 43 s Bit rate : 74 b/s Count of elements : 336 Stream size : 11.9 KiB (0%) Title : Deutsch [Full] Language : German Default : No Forced : No Text #3 ID : 6 Format : UTF-8 Codec ID : S_TEXT/UTF8 Codec ID/Info : UTF-8 Plain Text Duration : 21 min 36 s Bit rate : 100 b/s Count of elements : 475 Stream size : 15.9 KiB (0%) Title : Englisch [SDH] Language : English Default : No Forced : No ​

    720p:[​IMG]1080p:[​IMG]

    Geschützter Bereich
    Registriere dich oder logge dich ein, um den Inhalt sehen zu können
     
    chopper23 gefällt das.