1. Aktuell funktioniert unser Image Proxy nicht mehr ordnungsgemäß, sodass keine Bilder mehr angezeigt werden. Wir kümmern uns darum!

Wir verwenden Cookies, um deinen Aufenthalt auf Animes.so möglichst angenehm gestalten zu können. Mehr erfahren

D.Gray-Man S02 [Eng-Jap-Dub][480p][HEVC][DVDRip] - Win8Error

Dieses Thema im Forum "Anime Series (English)" wurde erstellt von Win8Error, 7. Okt. 2019.

  1. Win8Error
    Win8Error

    Uploader Otaku Experte

    Registriert seit:
    14. Juni 2019
    Beiträge:
    82
    Zustimmungen:
    140
    D.Gray-Man
    [​IMG]

    Beschreibung (TVDB)
    Ende des 19. Jahrhunderts sieht sich die Menschheit einer schon fast apokalyptischen Gefahr ausgesetzt. Akuma, vom Millenium-Grafen aus den Seelen toter Menschen erschaffene Maschinen, drohen alles Leben auszulöschen und normale Menschen sind nicht in der Lage etwas gegen sie auszurichten. Die Einzigen, die die Akuma bekämpfen können, sind sogenannten Exorzisten des schwarzen Ordens, deren Waffen mit einer göttlichen Kraft namens Innocence betrieben werden. Einer dieser Exorzisten ist Allen Walker, der sich nach seiner Ausbildung gerade auf dem Weg zum Hauptquartier des schwarzen Ordens befindet - ohne zu wissen, welche entscheidende Rolle er im Kampf gegen die Akuma bald spielen wird.

    Wichtigste Informationen
    Staffel: 2
    Episoden: 1 - 52 / 52
    Sprache: Englisch, Japanisch
    Untertitel: Englisch
    Erscheinungsjahr: 2006
    Quelle: DVD
    Auflösung: 854x480
    Videocodec: HEVC
    Audiocodec: AC3
    Typ: Encode (MKV)
    Größe: 16,8 GB
    Releaser: Win8Error

    Detaillierte Informationen
    Code:
    General
    Unique ID                                : 91351103197182492429164228237352868786 (0x44B9951F6088424B49F50E8251959BB2)
    Complete name                            : D.Gray.Man.S02E01.DL.AC3.480p.DVDRip.x265-Win8Error.mkv
    Format                                   : Matroska
    Format version                           : Version 4
    File size                                : 385 MiB
    Duration                                 : 23 min 2 s
    Overall bit rate                         : 2 336 kb/s
    Encoded date                             : UTC 2020-09-22 18:55:52
    Writing application                      : mkvmerge v47.0.0 ('Black Flag') 64-bit
    Writing library                          : libebml v1.3.10 + libmatroska v1.5.2
    
    Video
    ID                                       : 1
    Format                                   : HEVC
    Format/Info                              : High Efficiency Video Coding
    Format profile                           : Main@L6.2@High
    Codec ID                                 : V_MPEGH/ISO/HEVC
    Duration                                 : 23 min 2 s
    Bit rate                                 : 1 649 kb/s
    Width                                    : 854 pixels
    Height                                   : 480 pixels
    Display aspect ratio                     : 16:9
    Frame rate mode                          : Constant
    Frame rate                               : 23.976 (24000/1001) FPS
    Color space                              : YUV
    Chroma subsampling                       : 4:2:0
    Bit depth                                : 8 bits
    Bits/(Pixel*Frame)                       : 0.168
    Stream size                              : 272 MiB (71%)
    Writing library                          : x265 3.4:[Linux][GCC 10.1.0][64 bit] 8bit+10bit+12bit
    Encoding settings                        : cpuid=1049583 / frame-threads=3 / wpp / no-pmode / no-pme / no-psnr / no-ssim / log-level=2 / input-csp=1 / input-res=854x480 / interlace=0 / total-frames=0 / level-idc=62 / high-tier=1 / uhd-bd=0 / ref=4 / no-allow-non-conformance / no-repeat-headers / annexb / no-aud / no-hrd / info / hash=0 / no-temporal-layers / open-gop / min-keyint=23 / keyint=250 / gop-lookahead=0 / bframes=4 / b-adapt=2 / b-pyramid / bframe-bias=0 / rc-lookahead=25 / lookahead-slices=0 / scenecut=40 / hist-scenecut=0 / radl=0 / no-splice / no-intra-refresh / ctu=64 / min-cu-size=8 / rect / no-amp / max-tu-size=32 / tu-inter-depth=1 / tu-intra-depth=1 / limit-tu=0 / rdoq-level=2 / dynamic-rd=0.00 / no-ssim-rd / signhide / no-tskip / nr-intra=0 / nr-inter=0 / no-constrained-intra / strong-intra-smoothing / max-merge=3 / limit-refs=3 / limit-modes / me=3 / subme=3 / merange=57 / temporal-mvp / no-frame-dup / no-hme / weightp / no-weightb / no-analyze-src-pics / deblock=0:0 / sao / no-sao-non-deblock / rd=4 / selective-sao=4 / no-early-skip / rskip / no-fast-intra / no-tskip-fast / no-cu-lossless / no-b-intra / no-splitrd-skip / rdpenalty=0 / psy-rd=2.00 / psy-rdoq=1.00 / no-rd-refine / no-lossless / cbqpoffs=0 / crqpoffs=0 / rc=crf / crf=15.0 / qcomp=0.60 / qpstep=4 / stats-write=0 / stats-read=0 / vbv-maxrate=800000 / vbv-bufsize=800000 / vbv-init=0.9 / crf-max=0.0 / crf-min=0.0 / ipratio=1.40 / pbratio=1.30 / aq-mode=3 / aq-strength=1.00 / cutree / zone-count=0 / no-strict-cbr / qg-size=32 / no-rc-grain / qpmax=69 / qpmin=0 / no-const-vbv / sar=0 / overscan=0 / videoformat=5 / range=0 / colorprim=2 / transfer=2 / colormatrix=2 / chromaloc=0 / display-window=0 / cll=0,0 / min-luma=0 / max-luma=255 / log2-max-poc-lsb=8 / vui-timing-info / vui-hrd-info / slices=1 / no-opt-qp-pps / no-opt-ref-list-length-pps / no-multi-pass-opt-rps / scenecut-bias=0.05 / hist-threshold=0.01 / no-opt-cu-delta-qp / no-aq-motion / no-hdr10 / no-hdr10-opt / no-dhdr10-opt / no-idr-recovery-sei / analysis-reuse-level=0 / analysis-save-reuse-level=0 / analysis-load-reuse-level=0 / scale-factor=0 / refine-intra=0 / refine-inter=0 / refine-mv=1 / refine-ctu-distortion=0 / no-limit-sao / ctu-info=0 / no-lowpass-dct / refine-analysis-type=0 / copy-pic=1 / max-ausize-factor=1.0 / no-dynamic-refine / no-single-sei / no-hevc-aq / no-svt / no-field / qp-adaptation-range=1.00 / no-scenecut-aware-qpconformance-window-offsets / right=0 / bottom=0 / decoder-max-rate=0
    Language                                 : Japanese
    Default                                  : Yes
    Forced                                   : No
    
    Audio #1
    ID                                       : 2
    Format                                   : AC-3
    Format/Info                              : Audio Coding 3
    Commercial name                          : Dolby Digital
    Codec ID                                 : A_AC3
    Duration                                 : 23 min 2 s
    Bit rate mode                            : Constant
    Bit rate                                 : 448 kb/s
    Channel(s)                               : 6 channels
    Channel layout                           : L R C LFE Ls Rs
    Sampling rate                            : 48.0 kHz
    Frame rate                               : 31.250 FPS (1536 SPF)
    Compression mode                         : Lossy
    Stream size                              : 73.8 MiB (19%)
    Language                                 : English
    Service kind                             : Complete Main
    Default                                  : Yes
    Forced                                   : No
    
    Audio #2
    ID                                       : 3
    Format                                   : AC-3
    Format/Info                              : Audio Coding 3
    Commercial name                          : Dolby Digital
    Codec ID                                 : A_AC3
    Duration                                 : 23 min 2 s
    Bit rate mode                            : Constant
    Bit rate                                 : 192 kb/s
    Channel(s)                               : 2 channels
    Channel layout                           : L R
    Sampling rate                            : 48.0 kHz
    Frame rate                               : 31.250 FPS (1536 SPF)
    Compression mode                         : Lossy
    Stream size                              : 31.6 MiB (8%)
    Language                                 : Japanese
    Service kind                             : Complete Main
    Default                                  : No
    Forced                                   : No
    
    Text #1
    ID                                       : 4
    Format                                   : VobSub
    Muxing mode                              : zlib
    Codec ID                                 : S_VOBSUB
    Codec ID/Info                            : Picture based subtitle format used on DVDs
    Language                                 : English
    Default                                  : Yes
    Forced                                   : Yes
    
    Text #2
    ID                                       : 5
    Format                                   : VobSub
    Muxing mode                              : zlib
    Codec ID                                 : S_VOBSUB
    Codec ID/Info                            : Picture based subtitle format used on DVDs
    Language                                 : English
    Default                                  : No
    Forced                                   : No
    
    Menu
    00:00:00.000                             : en:Chapter 01
    00:01:31.024                             : en:Chapter 02
    00:13:02.139                             : en:Chapter 03
    00:20:56.012                             : en:Chapter 04
    00:22:30.168                             : en:Chapter 05
    00:22:51.712                             : en:Chapter 06
    00:23:10.288                             : en:Chapter 07

    Herunterladen
    [​IMG] uploaded.net

    Geschützter Bereich
    Registriere dich oder logge dich ein, um den Inhalt sehen zu können
    Passwort
    Das Passwort ist mein Forenname in Großbuchstaben rückwärts geschrieben.
     
    Zuletzt bearbeitet: 23. Nov. 2020

Diese Seite empfehlen