Welcome to our Community
Wanting to join the rest of our members? Feel free to sign up today.
Sign up

Danmachi: Is It Wrong to Try to Pick Up Girls in a Dungeon? Familia Myth III | Dungeon ni Deai o Motomeru no wa Machigatte Iru Darou ka: Familia Myth III [Ger-Jap-Dub][Ger-Sub][720p|1080p][E-AC-3|DTS-HD][8bits|10bits][x264|x265][BluRay] - AO

Azugo

H͓̽u͓̽g͓̽o͓̽ ͓̽&͓̽ ͓̽A͓̽z͓̽u͓̽r͓̽a͓̽
Otaku Gott
Uploader
25 März 2020
3.189
24.360
113


Danmachi: Is It Wrong to Try to Pick Up Girls in a Dungeon? Familia Myth III | Dungeon ni Deai o Motomeru no wa Machigatte Iru Darou ka: Familia Myth III



danmachi-familia-myth-iii-blu-ray-bundle-ce-vol-1-4~2.png



SRXGgee.png
anisearch.com schrieb:
»Danmachi: Is It Wrong to Try to Pick Up Girls in a Dungeon? 3«, die dritte Staffel der Anime-Adaption zu Fujino Oomoris gleichnamiger Light Novel, beginnt mit einer unerwarteten Begegnung: Protagonist Bell Cranel trifft auf Dungeon-Ebene 19 auf ein Monster vom Typ Vouivre, das entgegen aller Erwartungen die menschliche Sprache versteht und somit anscheinend eine höher entwickelte Intelligenz besitzt. Da das Monster ein junges Mädchen ist, kann Bell einfach nicht anders, als sie vor der Verfolgung durch andere Abenteurer schützen. Zum Entsetzen seiner eigenen Freunde und gegen ihren anfänglichen Protest bringt er sie gar hoch in die Stadt und nimmt sie in Hestias Gilde mit auf. Die Öffentlichkeit darf davon jedoch nichts erfahren, da jedes Monster in der Stadt gnadenlos gejagt und getötet werden soll.

Können Bell und seine Gilde ihre neue Freundin sicher bei sich behalten und vor den bereits Verdacht schöpfenden Abenteurern schützen?
Quelle: https://www.anisearch.de/anime/14636




t3RZ5BD.png


Spieldauer: ~24min
Genre: Romantische Komödie
Nebengenres: Abenteuer, Drama, Ecchi, Fantasy, Harem
Jahr: 2020
Sprache:
Deutsch.png
Deutsch,
Japanisch.png
Japanisch
Untertitel:
Deutsch.png
Deutsch
Größe pro Folge: ~719mb, ~1410mb ~1760mb, ~1720mb, ~1420mb
Episodenanzahl: 12/12
Format: MKV
Auflösung: 720p (16:9), 1080p (16:9)
Videocodec: H264 (AVC), H265 (HEVC)
Audiocodec: E-AC-3, DTS-HD
Releasegruppe: Anime Otakus
Hoster:
rapidgator-gif.30742
Rapidgator,
ddownload-gif.30720
ddownload


QTQOKDS.png

Rich (BBCode):
Format                                   : Matroska
Format-Version                           : Version 4
Dateigröße                               : 719 MiB
Dauer                                    : 23 min 42s
Gesamte Bitrate                          : 4 237 kb/s
Kodierungs-Datum                         : UTC 2022-04-07 19:42:16
Kodierendes Programm                     : mkvmerge v66.0.0 ('Josie') 64-bit
verwendete Encoder-Bibliothek            : libebml v1.4.2 + libmatroska v1.6.4
Release by                               : Anime Otakus
Version                                  : 1.2

Video
ID                                       : 1
Format                                   : AVC
Format/Info                              : Advanced Video Codec
Format-Profil                            : [email protected]
Format-Einstellungen                     : CABAC / 8 Ref Frames
Format-Einstellungen für CABAC           : Ja
Format-Einstellungen für RefFrames       : 8 frames
Codec-ID                                 : V_MPEG4/ISO/AVC
Dauer                                    : 23 min 42s
Bitrate                                  : 2 935 kb/s
Breite                                   : 1 280 Pixel
Höhe                                     : 720 Pixel
Bildseitenverhältnis                     : 16:9
Modus der Bildwiederholungsrate          : konstant
Bildwiederholungsrate                    : 23,976 (24000/1001) FPS
Color space                              : YUV
Chroma subsampling                       : 4:2:0
Bit depth                                : 8 bits
Scantyp                                  : progressiv
Bits/(Pixel*Frame)                       : 0.133
Stream-Größe                             : 498 MiB (69%)
Sprache                                  : Englisch
Default                                  : Nein
Forced                                   : Nein
Color range                              : Limited
Color primaries                          : BT.709
Transfer characteristics                 : BT.709
Matrix coefficients                      : BT.709

Audio #1
ID                                       : 4
Format                                   : E-AC-3
Format/Info                              : Enhanced AC-3
Commercial name                          : Dolby Digital Plus
Codec-ID                                 : A_EAC3
Dauer                                    : 23 min 42s
Bitraten-Modus                           : konstant
Bitrate                                  : 640 kb/s
Kanäle                                   : 2 Kanäle
Channel layout                           : L R
Samplingrate                             : 48,0 kHz
Bildwiederholungsrate                    : 31,250 FPS (1536 SPF)
Bit depth                                : 32 bits
Compression mode                         : Lossy
Video Verzögerung                        : -5 ms
Stream-Größe                             : 109 MiB (15%)
Titel                                    : Stereo
Sprache                                  : Deutsch
Service kind                             : Complete Main
Default                                  : Ja
Forced                                   : Nein

Audio #2
ID                                       : 5
Format                                   : E-AC-3
Format/Info                              : Enhanced AC-3
Commercial name                          : Dolby Digital Plus
Codec-ID                                 : A_EAC3
Dauer                                    : 23 min 42s
Bitraten-Modus                           : konstant
Bitrate                                  : 640 kb/s
Kanäle                                   : 2 Kanäle
Channel layout                           : L R
Samplingrate                             : 48,0 kHz
Bildwiederholungsrate                    : 31,250 FPS (1536 SPF)
Bit depth                                : 32 bits
Compression mode                         : Lossy
Video Verzögerung                        : -5 ms
Stream-Größe                             : 109 MiB (15%)
Titel                                    : Stereo
Sprache                                  : Japanisch
Service kind                             : Complete Main
Default                                  : Nein
Forced                                   : Nein

Text #1
ID                                       : 2
Format                                   : PGS
Muxing-Modus                             : zlib
Codec-ID                                 : S_HDMV/PGS
Codec-ID/Info                            : Picture based subtitle format used on BDs/HD-DVDs
Dauer                                    : 23 min 41s
Bitrate                                  : 2 419 b/s
Count of elements                        : 34
Stream-Größe                             : 420 KiB (0%)
Titel                                    : German Forced
Sprache                                  : Chinesisch
Default                                  : Ja
Forced                                   : Nein

Text #2
ID                                       : 3
Format                                   : PGS
Muxing-Modus                             : zlib
Codec-ID                                 : S_HDMV/PGS
Codec-ID/Info                            : Picture based subtitle format used on BDs/HD-DVDs
Dauer                                    : 23 min 38s
Bitrate                                  : 42,7 kb/s
Count of elements                        : 751
Stream-Größe                             : 7,21 MiB (1%)
Titel                                    : German Full
Sprache                                  : Deutsch
Default                                  : Nein
Forced                                   : Nein
Rich (BBCode):
Format                                   : Matroska
Format version                           : Version 4
File size                                : 1.41 GiB
Duration                                 : 23 min 42 s
Overall bit rate                         : 8 532 kb/s
Encoded date                             : UTC 2022-04-07 23:16:20
Writing application                      : mkvmerge v65.0.0 ('Too Much') 64-bit
Writing library                          : libebml v1.4.2 + libmatroska v1.6.4
Release by                               : Anime Otakus
Version                                  : 1.2

Video
ID                                       : 1
Format                                   : AVC
Format/Info                              : Advanced Video Codec
Format profile                           : [email protected]
Format settings                          : CABAC / 12 Ref Frames
Format settings, CABAC                   : Yes
Format settings, Reference frames        : 12 frames
Codec ID                                 : V_MPEG4/ISO/AVC
Duration                                 : 23 min 42 s
Bit rate                                 : 7 229 kb/s
Width                                    : 1 920 pixels
Height                                   : 1 080 pixels
Display aspect ratio                     : 16:9
Frame rate mode                          : Constant
Frame rate                               : 23.976 (24000/1001) FPS
Color space                              : YUV
Chroma subsampling                       : 4:2:0
Bit depth                                : 8 bits
Scan type                                : Progressive
Bits/(Pixel*Frame)                       : 0.145
Stream size                              : 1.20 GiB (85%)
Language                                 : English
Default                                  : No
Forced                                   : No
Color range                              : Limited
Color primaries                          : BT.709
Transfer characteristics                 : BT.709
Matrix coefficients                      : BT.709

Audio #1
ID                                       : 4
Format                                   : E-AC-3
Format/Info                              : Enhanced AC-3
Commercial name                          : Dolby Digital Plus
Codec ID                                 : A_EAC3
Duration                                 : 23 min 42 s
Bit rate mode                            : Constant
Bit rate                                 : 640 kb/s
Channel(s)                               : 2 channels
Channel layout                           : L R
Sampling rate                            : 48.0 kHz
Frame rate                               : 31.250 FPS (1536 SPF)
Bit depth                                : 32 bits
Compression mode                         : Lossy
Delay relative to video                  : -5 ms
Stream size                              : 109 MiB (8%)
Title                                    : Stereo
Language                                 : German
Service kind                             : Complete Main
Default                                  : Yes
Forced                                   : No

Audio #2
ID                                       : 5
Format                                   : E-AC-3
Format/Info                              : Enhanced AC-3
Commercial name                          : Dolby Digital Plus
Codec ID                                 : A_EAC3
Duration                                 : 23 min 42 s
Bit rate mode                            : Constant
Bit rate                                 : 640 kb/s
Channel(s)                               : 2 channels
Channel layout                           : L R
Sampling rate                            : 48.0 kHz
Frame rate                               : 31.250 FPS (1536 SPF)
Bit depth                                : 32 bits
Compression mode                         : Lossy
Delay relative to video                  : -5 ms
Stream size                              : 109 MiB (8%)
Title                                    : Stereo
Language                                 : Japanese
Service kind                             : Complete Main
Default                                  : No
Forced                                   : No

Text #1
ID                                       : 2
Format                                   : PGS
Muxing mode                              : zlib
Codec ID                                 : S_HDMV/PGS
Codec ID/Info                            : Picture based subtitle format used on BDs/HD-DVDs
Duration                                 : 23 min 41 s
Bit rate                                 : 2 419 b/s
Count of elements                        : 34
Stream size                              : 420 KiB (0%)
Title                                    : German Forced
Language                                 : Chinese
Default                                  : Yes
Forced                                   : No

Text #2
ID                                       : 3
Format                                   : PGS
Muxing mode                              : zlib
Codec ID                                 : S_HDMV/PGS
Codec ID/Info                            : Picture based subtitle format used on BDs/HD-DVDs
Duration                                 : 23 min 38 s
Bit rate                                 : 42.7 kb/s
Count of elements                        : 751
Stream size                              : 7.21 MiB (0%)
Title                                    : German Full
Language                                 : German
Default                                  : No
Forced                                   : No

Rich (BBCode):
Format                                   : Matroska
Format-Version                           : Version 4
Dateigröße                               : 1,76 GiB
Dauer                                    : 23 min 42s
Modus der Gesamtbitrate                  : variabel
Gesamte Bitrate                          : 10,6 Mb/s
Kodierungs-Datum                         : UTC 2022-04-07 19:42:13
Kodierendes Programm                     : mkvmerge v66.0.0 ('Josie') 64-bit
verwendete Encoder-Bibliothek            : libebml v1.4.2 + libmatroska v1.6.4
Release by                               : Anime Otakus
Version                                  : 1.2

Video
ID                                       : 1
Format                                   : AVC
Format/Info                              : Advanced Video Codec
Format-Profil                            : [email protected]
Format-Einstellungen                     : CABAC / 12 Ref Frames
Format-Einstellungen für CABAC           : Ja
Format-Einstellungen für RefFrames       : 12 frames
Codec-ID                                 : V_MPEG4/ISO/AVC
Dauer                                    : 23 min 42s
Breite                                   : 1 920 Pixel
Höhe                                     : 1 080 Pixel
Bildseitenverhältnis                     : 16:9
Modus der Bildwiederholungsrate          : konstant
Bildwiederholungsrate                    : 23,976 (24000/1001) FPS
Color space                              : YUV
Chroma subsampling                       : 4:2:0
Bit depth                                : 8 bits
Scantyp                                  : progressiv
Sprache                                  : Englisch
Default                                  : Nein
Forced                                   : Nein
Color range                              : Limited
Color primaries                          : BT.709
Transfer characteristics                 : BT.709
Matrix coefficients                      : BT.709

Audio #1
ID                                       : 4
Format                                   : DTS XLL
Format/Info                              : Digital Theater Systems
Commercial name                          : DTS-HD Master Audio
Codec-ID                                 : A_DTS
Dauer                                    : 23 min 42s
Bitraten-Modus                           : variabel
Kanäle                                   : 2 Kanäle
Channel layout                           : L R
Samplingrate                             : 48,0 kHz
Bildwiederholungsrate                    : 93,750 FPS (512 SPF)
Bit depth                                : 24 bits
Compression mode                         : Lossless
Titel                                    : Stereo
Sprache                                  : Deutsch
Default                                  : Ja
Forced                                   : Nein

Audio #2
ID                                       : 5
Format                                   : DTS XLL
Format/Info                              : Digital Theater Systems
Commercial name                          : DTS-HD Master Audio
Codec-ID                                 : A_DTS
Dauer                                    : 23 min 42s
Bitraten-Modus                           : variabel
Kanäle                                   : 2 Kanäle
Channel layout                           : L R
Samplingrate                             : 48,0 kHz
Bildwiederholungsrate                    : 93,750 FPS (512 SPF)
Bit depth                                : 24 bits
Compression mode                         : Lossless
Titel                                    : Stereo
Sprache                                  : Japanisch
Default                                  : Nein
Forced                                   : Nein

Text #1
ID                                       : 2
Format                                   : PGS
Muxing-Modus                             : zlib
Codec-ID                                 : S_HDMV/PGS
Codec-ID/Info                            : Picture based subtitle format used on BDs/HD-DVDs
Titel                                    : German Forced
Sprache                                  : Chinesisch
Default                                  : Ja
Forced                                   : Nein

Text #2
ID                                       : 3
Format                                   : PGS
Muxing-Modus                             : zlib
Codec-ID                                 : S_HDMV/PGS
Codec-ID/Info                            : Picture based subtitle format used on BDs/HD-DVDs
Titel                                    : German Full
Sprache                                  : Deutsch
Default                                  : Nein
Forced                                   : Nein

Rich (BBCode):
Format                                   : Matroska
Format-Version                           : Version 4
Dateigröße                               : 1,72 GiB
Dauer                                    : 23 min 42s
Modus der Gesamtbitrate                  : variabel
Gesamte Bitrate                          : 10,4 Mb/s
Kodierungs-Datum                         : UTC 2022-04-07 21:22:25
Kodierendes Programm                     : mkvmerge v66.0.0 ('Josie') 64-bit
verwendete Encoder-Bibliothek            : libebml v1.4.2 + libmatroska v1.6.4
Release by                               : Anime Otakus
Version                                  : 1.2

Video
ID                                       : 1
Format                                   : HEVC
Format/Info                              : High Efficiency Video Coding
Format-Profil                            : Main [email protected]@Main
Codec-ID                                 : V_MPEGH/ISO/HEVC
Dauer                                    : 23 min 42s
Bitrate                                  : 6 996 kb/s
Breite                                   : 1 920 Pixel
Höhe                                     : 1 080 Pixel
Bildseitenverhältnis                     : 16:9
Modus der Bildwiederholungsrate          : konstant
Bildwiederholungsrate                    : 23,976 (24000/1001) FPS
Color space                              : YUV
Chroma subsampling                       : 4:2:0 (Type 0)
Bit depth                                : 10 bits
Bits/(Pixel*Frame)                       : 0.141
Stream-Größe                             : 1,16 GiB (67%)
Sprache                                  : Englisch
Default                                  : Nein
Forced                                   : Nein
Color range                              : Limited

Audio #1
ID                                       : 4
Format                                   : DTS XLL
Format/Info                              : Digital Theater Systems
Commercial name                          : DTS-HD Master Audio
Codec-ID                                 : A_DTS
Dauer                                    : 23 min 42s
Bitraten-Modus                           : variabel
Bitrate                                  : 1 704 kb/s
Kanäle                                   : 2 Kanäle
Channel layout                           : L R
Samplingrate                             : 48,0 kHz
Bildwiederholungsrate                    : 93,750 FPS (512 SPF)
Bit depth                                : 24 bits
Compression mode                         : Lossless
Stream-Größe                             : 289 MiB (16%)
Titel                                    : Stereo
Sprache                                  : Deutsch
Default                                  : Ja
Forced                                   : Nein

Audio #2
ID                                       : 5
Format                                   : DTS XLL
Format/Info                              : Digital Theater Systems
Commercial name                          : DTS-HD Master Audio
Codec-ID                                 : A_DTS
Dauer                                    : 23 min 42s
Bitraten-Modus                           : variabel
Bitrate                                  : 1 670 kb/s
Kanäle                                   : 2 Kanäle
Channel layout                           : L R
Samplingrate                             : 48,0 kHz
Bildwiederholungsrate                    : 93,750 FPS (512 SPF)
Bit depth                                : 24 bits
Compression mode                         : Lossless
Stream-Größe                             : 283 MiB (16%)
Titel                                    : Stereo
Sprache                                  : Japanisch
Default                                  : Nein
Forced                                   : Nein

Text #1
ID                                       : 2
Format                                   : PGS
Muxing-Modus                             : zlib
Codec-ID                                 : S_HDMV/PGS
Codec-ID/Info                            : Picture based subtitle format used on BDs/HD-DVDs
Dauer                                    : 23 min 41s
Bitrate                                  : 2 419 b/s
Count of elements                        : 34
Stream-Größe                             : 420 KiB (0%)
Titel                                    : German Forced
Sprache                                  : Chinesisch
Default                                  : Ja
Forced                                   : Nein

Text #2
ID                                       : 3
Format                                   : PGS
Muxing-Modus                             : zlib
Codec-ID                                 : S_HDMV/PGS
Codec-ID/Info                            : Picture based subtitle format used on BDs/HD-DVDs
Dauer                                    : 23 min 38s
Bitrate                                  : 42,7 kb/s
Count of elements                        : 751
Stream-Größe                             : 7,21 MiB (0%)
Titel                                    : German Full
Sprache                                  : Deutsch
Default                                  : Nein
Forced                                   : Nein

Rich (BBCode):
Format                                   : Matroska
Format version                           : Version 4
File size                                : 1.42 GiB
Duration                                 : 23 min 42 s
Overall bit rate mode                    : Variable
Overall bit rate                         : 8 558 kb/s
Encoded date                             : UTC 2022-07-09 21:16:30
Writing application                      : mkvmerge v68.0.0 ('The Curtain') 64-bit
Writing library                          : libebml v1.4.2 + libmatroska v1.6.4
Release by                               : Anime Otakus
Version                                  : 1.1

Video
ID                                       : 1
Format                                   : AV1
Format/Info                              : AOMedia Video 1
Format profile                           : [email protected]
Codec ID                                 : V_AV1
Duration                                 : 23 min 42 s
Bit rate                                 : 5 158 kb/s
Width                                    : 1 920 pixels
Height                                   : 1 080 pixels
Display aspect ratio                     : 16:9
Frame rate mode                          : Constant
Frame rate                               : 23.976 (24000/1001) FPS
Color space                              : YUV
Chroma subsampling                       : 4:2:0
Bit depth                                : 10 bits
Bits/(Pixel*Frame)                       : 0.104
Stream size                              : 875 MiB (60%)
Default                                  : Yes
Forced                                   : No
Color range                              : Limited
Color primaries                          : BT.709
Transfer characteristics                 : BT.709
Matrix coefficients                      : BT.709

Audio #1
ID                                       : 2
Format                                   : DTS XLL
Format/Info                              : Digital Theater Systems
Commercial name                          : DTS-HD Master Audio
Codec ID                                 : A_DTS
Duration                                 : 23 min 42 s
Bit rate mode                            : Variable
Bit rate                                 : 1 704 kb/s
Channel(s)                               : 2 channels
Channel layout                           : L R
Sampling rate                            : 48.0 kHz
Frame rate                               : 93.750 FPS (512 SPF)
Bit depth                                : 24 bits
Compression mode                         : Lossless
Stream size                              : 289 MiB (20%)
Language                                 : German
Default                                  : Yes
Forced                                   : No

Audio #2
ID                                       : 3
Format                                   : DTS XLL
Format/Info                              : Digital Theater Systems
Commercial name                          : DTS-HD Master Audio
Codec ID                                 : A_DTS
Duration                                 : 23 min 42 s
Bit rate mode                            : Variable
Bit rate                                 : 1 670 kb/s
Channel(s)                               : 2 channels
Channel layout                           : L R
Sampling rate                            : 48.0 kHz
Frame rate                               : 93.750 FPS (512 SPF)
Bit depth                                : 24 bits
Compression mode                         : Lossless
Stream size                              : 283 MiB (20%)
Language                                 : Japanese
Default                                  : No
Forced                                   : No

Text #1
ID                                       : 4
Format                                   : PGS
Muxing mode                              : zlib
Codec ID                                 : S_HDMV/PGS
Codec ID/Info                            : Picture based subtitle format used on BDs/HD-DVDs
Duration                                 : 23 min 41 s
Bit rate                                 : 2 419 b/s
Count of elements                        : 34
Stream size                              : 420 KiB (0%)
Title                                    : German Forced
Language                                 : German
Default                                  : Yes
Forced                                   : No

Text #2
ID                                       : 5
Format                                   : PGS
Muxing mode                              : zlib
Codec ID                                 : S_HDMV/PGS
Codec ID/Info                            : Picture based subtitle format used on BDs/HD-DVDs
Duration                                 : 23 min 38 s
Bit rate                                 : 42.7 kb/s
Count of elements                        : 751
Stream size                              : 7.21 MiB (0%)
Title                                    : German Full
Language                                 : German
Default                                  : No
Forced                                   : No





p6tlRgE.png

fqfOvST.png

720p EAC3
10961D603D.png

1080p EAC3
21147DC969.png

1080p DTS-HD
B5B5493FCB.png

x265 1080p DTS-HD
BD64BFF4CA.png

AV1 1080p DTS-HD
2866E5CD06.png


OQ7Exm0.png

720p EAC3
5FA051A1F9.png

1080p EAC3
E57AC27D77.png

1080p DTS-HD
7BAFD48FA6.png

x265 1080p DTS-HD
F65BB14651.png

AV1 1080p DTS-HD
ED62B0FA98.png


To view the content, you need to Sign In or Register.

 
Zuletzt bearbeitet: