1. Die erweiterte Suche funktioniert wieder. Die LiveSearch wird gegen Ende der Woche wieder funktionieren.

Wir verwenden Cookies, um deinen Aufenthalt auf Animes.so möglichst angenehm gestalten zu können. Mehr erfahren

Danmachi: Is It Wrong to Try to Pick Up Girls in a Dungeon? OVA [Ger-Jap-Dub][Ger-Sub][MP3|AC-3|DTS-HD][408p|720p|1080p][BluRay] - AST4u

Dieses Thema im Forum "Serien (GerDub)" wurde erstellt von Ta@, 29. Nov. 2018.

  1. Ta@

    Ta@ Erfahrener Otaku Otaku König

    Registriert seit:
    7. Juli 2016
    Beiträge:
    340
    Zustimmungen:
    11.619
    Dungeon ni Deai o Motomeru no wa Machigatte Iru Darou ka: Familia Myth OVA
    Danmachi: Is It Wrong to Try to Pick Up Girls in a Dungeon? OVA
    Dungeon ni Deai o Motomeru no wa Machigatte Iru Darouka: Familia Myth OVA, Is It Wrong to Try to Pick Up Girls in a Dungeon? Familia Myth OVA, DanMachi OVA, Is It Wrong to Try to Pick Up Girls in a Dungeon? Is It Wrong to Try to Soak in a Hot Spring in a Dungeon?

    [​IMG]
    [​IMG]

    Die OVA schliesst unmittelbar an die Geschehnisse von "Danmachi - Familia Myth" an undspielt damit auch nach "Sword Oratoria".Der Kampf gegen den Black Goliath auf der 18. Ebene - die grösste Bedrohung, die Livira, dasParadies im Dungeon, je überstehen musste - ist überstanden. Erschöpft, aber glücklichmachen sich die Abenteurer zurück auf den Weg nach Orario. Bell, Lili und Welf sindgemeinsam mit der zu ihrer Rettung ausgezogenen Gruppe um Hestia unterwegs, als sie einebisher unbekannte Grotte entdecken, in der sich eine heisse Quelle befindet. Man beschliesst,hier eine wohlverdiente Pause einzulegen - doch im Dungeon kann man sich nie sicher sein,dass nicht irgendwo Gefahren lauern.

    Folgen: 1/1
    Größe pro Folge: ~259 MB/~576 MB/~1163 MB/~1769 MB
    Folgendauer: ~25 Min
    Releaser: AST4u
    Art: Lizenzrelease
    Sprache: Japanisch, Deutsch
    Untertitel: Deutsch
    Jahr: 2016
    Genres: Abenteuer, Action, Ecchi, Fantasy, Ganbatte, Harem, Komödie, Romanze
    Auflösung: 720x408/1280x720/1920x1080
    Format: AVI/MKV
    Quelle: BluRay
    Videocodec: x264
    Farbtiefe: 8Bit
    Audiocodec: MP3/AC3/DTS
    Publisher: Anime House
    Hoster: Share-Online

    [​IMG]
    Code:
    General Complete name : Danmachi-Is.It.Wrong.to.Try.to.Pick.Up.Girls.in.a.Dungeon.OVA.German.DL.MP3.BluRay.Xvid.AST4u.avi Format : Matroska Format version : Version 4 File size : 260 MiB Duration : 24 min 36 s Overall bit rate : 1 477 kb/s Encoded date : UTC 2018-11-29 10:46:33 Writing application : mkvmerge v8.1.0 ('Psychedelic Postcard') 32bit Writing library : libebml v1.3.1 + libmatroska v1.4.2 FileExtension_Invalid : mkv mk3d mka mks Video ID : 3 Format : MPEG-4 Visual Format profile : Advanced Simple@L5 Format settings : BVOP2 Format settings, BVOP : 2 Format settings, QPel : No Format settings, GMC : No warppoints Format settings, Matrix : Default (MPEG) Codec ID : V_MS/VFW/FOURCC / XVID Codec ID/Hint : XviD Duration : 24 min 36 s Bit rate : 1 052 kb/s Width : 720 pixels Height : 408 pixels Display aspect ratio : 16:9 Frame rate mode : Constant Frame rate : 23.976 (24000/1001) FPS Color space : YUV Chroma subsampling : 4:2:0 Bit depth : 8 bits Scan type : Progressive Compression mode : Lossy Bits/(Pixel*Frame) : 0.149 Stream size : 185 MiB (71%) Writing library : XviD 67 Default : Yes Forced : No Audio #1 ID : 4 Format : MPEG Audio Format version : Version 1 Format profile : Layer 3 Format settings : Joint stereo / MS Stereo Codec ID : A_MPEG/L3 Codec ID/Hint : MP3 Duration : 24 min 36 s Bit rate mode : Constant Bit rate : 192 kb/s Channel(s) : 2 channels Sampling rate : 48.0 kHz Frame rate : 41.667 FPS (1152 SPF) Compression mode : Lossy Stream size : 33.8 MiB (13%) Writing library : LAME3.99r Encoding settings : -m j -V 4 -q 2 -lowpass 18.6 -b 192 Language : German Default : Yes Forced : No Audio #2 ID : 5 Format : MPEG Audio Format version : Version 1 Format profile : Layer 3 Format settings : Joint stereo / MS Stereo Codec ID : A_MPEG/L3 Codec ID/Hint : MP3 Duration : 24 min 36 s Bit rate mode : Constant Bit rate : 192 kb/s Channel(s) : 2 channels Sampling rate : 48.0 kHz Frame rate : 41.667 FPS (1152 SPF) Compression mode : Lossy Stream size : 33.8 MiB (13%) Writing library : LAME3.99r Encoding settings : -m j -V 4 -q 2 -lowpass 18.6 -b 192 Language : Japanese Default : No Forced : No Text #1 ID : 1 Format : PGS Muxing mode : zlib Codec ID : S_HDMV/PGS Codec ID/Info : Picture based subtitle format used on BDs/HD-DVDs Duration : 23 min 17 s Bit rate : 9 214 b/s Count of elements : 202 Stream size : 1.54 MiB (1%) Language : German Default : Yes Forced : No Text #2 ID : 2 Format : PGS Muxing mode : zlib Codec ID : S_HDMV/PGS Codec ID/Info : Picture based subtitle format used on BDs/HD-DVDs Duration : 24 min 20 s Bit rate : 31.0 kb/s Count of elements : 784 Stream size : 5.39 MiB (2%) Language : German Default : No Forced : No ​
    Code:
    General Complete name : Danmachi-Is.It.Wrong.to.Try.to.Pick.Up.Girls.in.a.Dungeon.OVA.German.AC3.DL.720p.BluRay.x264-AST4u.mkv Format : Matroska Format version : Version 4 File size : 577 MiB Duration : 24 min 36 s Overall bit rate : 3 279 kb/s Encoded date : UTC 2018-11-29 10:38:24 Writing application : mkvmerge v8.1.0 ('Psychedelic Postcard') 32bit Writing library : libebml v1.3.1 + libmatroska v1.4.2 Video ID : 3 Format : AVC Format/Info : Advanced Video Codec Format profile : High@L4.1 Format settings : CABAC / 4 Ref Frames Format settings, CABAC : Yes Format settings, RefFrames : 4 frames Codec ID : V_MPEG4/ISO/AVC Duration : 24 min 36 s Bit rate : 2 341 kb/s Width : 1 280 pixels Height : 720 pixels Display aspect ratio : 16:9 Frame rate mode : Constant Frame rate : 23.976 (24000/1001) FPS Color space : YUV Chroma subsampling : 4:2:0 Bit depth : 8 bits Scan type : Progressive Bits/(Pixel*Frame) : 0.106 Stream size : 412 MiB (71%) Writing library : x264 core 148 r2705+54 9f484c1 t_mod_Custom [8-bit@all X86_64] Encoding settings : cabac=1 / ref=3 / deblock=1:0:0 / analyse=0x3:0x113 / me=hex / subme=9 / psy=1 / fade_compensate=0.00 / psy_rd=1.00:0.00 / mixed_ref=1 / me_range=16 / chroma_me=1 / trellis=1 / 8x8dct=1 / cqm=0 / deadzone=21,11 / fast_pskip=1 / chroma_qp_offset=-2 / threads=12 / lookahead_threads=1 / sliced_threads=0 / nr=0 / decimate=1 / interlaced=0 / bluray_compat=0 / constrained_intra=0 / fgo=0 / bframes=3 / b_pyramid=2 / b_adapt=2 / b_bias=0 / direct=1 / weightb=1 / open_gop=0 / weightp=2 / keyint=240 / keyint_min=23 / scenecut=40 / intra_refresh=0 / rc_lookahead=40 / rc=crf / mbtree=1 / crf=16.0000 / qcomp=0.60 / qpmin=0:0:0 / qpmax=69:69:69 / qpstep=4 / vbv_maxrate=62500 / vbv_bufsize=78125 / crf_max=0.0 / nal_hrd=none / filler=0 / ip_ratio=1.40 / aq=1:1.00 / aq-sensitivity=10.00 / aq-factor=1.00:1.00:1.00 / aq2=0 / aq3=0 Default : Yes Forced : No Audio #1 ID : 4 Format : AC-3 Format/Info : Audio Coding 3 Commercial name : Dolby Digital Codec ID : A_AC3 Duration : 24 min 36 s Bit rate mode : Constant Bit rate : 448 kb/s Channel(s) : 2 channels Channel layout : L R Sampling rate : 48.0 kHz Frame rate : 31.250 FPS (1536 SPF) Bit depth : 16 bits Compression mode : Lossy Stream size : 78.8 MiB (14%) Title : Deutsch Language : German Service kind : Complete Main Default : Yes Forced : No Audio #2 ID : 5 Format : AC-3 Format/Info : Audio Coding 3 Commercial name : Dolby Digital Codec ID : A_AC3 Duration : 24 min 36 s Bit rate mode : Constant Bit rate : 448 kb/s Channel(s) : 2 channels Channel layout : L R Sampling rate : 48.0 kHz Frame rate : 31.250 FPS (1536 SPF) Bit depth : 16 bits Compression mode : Lossy Stream size : 78.8 MiB (14%) Title : Japanisch Language : Japanese Service kind : Complete Main Default : No Forced : No Text #1 ID : 1 Format : PGS Muxing mode : zlib Codec ID : S_HDMV/PGS Codec ID/Info : Picture based subtitle format used on BDs/HD-DVDs Duration : 23 min 17 s Bit rate : 9 214 b/s Count of elements : 202 Stream size : 1.54 MiB (0%) Title : Deutsch [Forced] Language : German Default : Yes Forced : No Text #2 ID : 2 Format : PGS Muxing mode : zlib Codec ID : S_HDMV/PGS Codec ID/Info : Picture based subtitle format used on BDs/HD-DVDs Duration : 24 min 20 s Bit rate : 31.0 kb/s Count of elements : 784 Stream size : 5.39 MiB (1%) Title : Deutsch [Full] Language : German Default : No Forced : No ​
    Code:
    General Complete name : Danmachi-Is.It.Wrong.to.Try.to.Pick.Up.Girls.in.a.Dungeon.OVA.German.AC3.DL.1080p.BluRay.x264-AST4u.mkv Format : Matroska Format version : Version 4 File size : 1.14 GiB Duration : 24 min 36 s Overall bit rate : 6 611 kb/s Encoded date : UTC 2018-11-29 10:40:45 Writing application : mkvmerge v8.1.0 ('Psychedelic Postcard') 32bit Writing library : libebml v1.3.1 + libmatroska v1.4.2 Video ID : 3 Format : AVC Format/Info : Advanced Video Codec Format profile : High@L4.1 Format settings : CABAC / 4 Ref Frames Format settings, CABAC : Yes Format settings, RefFrames : 4 frames Codec ID : V_MPEG4/ISO/AVC Duration : 24 min 36 s Bit rate : 5 674 kb/s Width : 1 920 pixels Height : 1 080 pixels Display aspect ratio : 16:9 Frame rate mode : Constant Frame rate : 23.976 (24000/1001) FPS Color space : YUV Chroma subsampling : 4:2:0 Bit depth : 8 bits Scan type : Progressive Bits/(Pixel*Frame) : 0.114 Stream size : 998 MiB (86%) Writing library : x264 core 148 r2705+54 9f484c1 t_mod_Custom [8-bit@all X86_64] Encoding settings : cabac=1 / ref=3 / deblock=1:0:0 / analyse=0x3:0x113 / me=hex / subme=9 / psy=1 / fade_compensate=0.00 / psy_rd=1.00:0.00 / mixed_ref=1 / me_range=16 / chroma_me=1 / trellis=1 / 8x8dct=1 / cqm=0 / deadzone=21,11 / fast_pskip=1 / chroma_qp_offset=-2 / threads=24 / lookahead_threads=2 / sliced_threads=0 / nr=0 / decimate=1 / interlaced=0 / bluray_compat=0 / constrained_intra=0 / fgo=0 / bframes=3 / b_pyramid=2 / b_adapt=2 / b_bias=0 / direct=1 / weightb=1 / open_gop=0 / weightp=2 / keyint=240 / keyint_min=23 / scenecut=40 / intra_refresh=0 / rc_lookahead=40 / rc=crf / mbtree=1 / crf=16.0000 / qcomp=0.60 / qpmin=0:0:0 / qpmax=69:69:69 / qpstep=4 / vbv_maxrate=62500 / vbv_bufsize=78125 / crf_max=0.0 / nal_hrd=none / filler=0 / ip_ratio=1.40 / aq=1:1.00 / aq-sensitivity=10.00 / aq-factor=1.00:1.00:1.00 / aq2=0 / aq3=0 Default : Yes Forced : No Audio #1 ID : 4 Format : AC-3 Format/Info : Audio Coding 3 Commercial name : Dolby Digital Codec ID : A_AC3 Duration : 24 min 36 s Bit rate mode : Constant Bit rate : 448 kb/s Channel(s) : 2 channels Channel layout : L R Sampling rate : 48.0 kHz Frame rate : 31.250 FPS (1536 SPF) Bit depth : 16 bits Compression mode : Lossy Stream size : 78.8 MiB (7%) Title : Deutsch Language : German Service kind : Complete Main Default : Yes Forced : No Audio #2 ID : 5 Format : AC-3 Format/Info : Audio Coding 3 Commercial name : Dolby Digital Codec ID : A_AC3 Duration : 24 min 36 s Bit rate mode : Constant Bit rate : 448 kb/s Channel(s) : 2 channels Channel layout : L R Sampling rate : 48.0 kHz Frame rate : 31.250 FPS (1536 SPF) Bit depth : 16 bits Compression mode : Lossy Stream size : 78.8 MiB (7%) Title : Japanisch Language : Japanese Service kind : Complete Main Default : No Forced : No Text #1 ID : 1 Format : PGS Muxing mode : zlib Codec ID : S_HDMV/PGS Codec ID/Info : Picture based subtitle format used on BDs/HD-DVDs Duration : 23 min 17 s Bit rate : 9 214 b/s Count of elements : 202 Stream size : 1.54 MiB (0%) Title : Deutsch [Forced] Language : German Default : Yes Forced : No Text #2 ID : 2 Format : PGS Muxing mode : zlib Codec ID : S_HDMV/PGS Codec ID/Info : Picture based subtitle format used on BDs/HD-DVDs Duration : 24 min 20 s Bit rate : 31.0 kb/s Count of elements : 784 Stream size : 5.39 MiB (0%) Title : Deutsch [Full] Language : German Default : No Forced : No ​
    Code:
    General Complete name : Danmachi-Is.It.Wrong.to.Try.to.Pick.Up.Girls.in.a.Dungeon.OVA.German.DTS.2.0.DL.1080p.BluRay.x264-AST4u.mkv Format : Matroska Format version : Version 4 File size : 1.73 GiB Duration : 24 min 36 s Overall bit rate mode : Variable Overall bit rate : 10.1 Mb/s Encoded date : UTC 2018-11-29 10:41:24 Writing application : mkvmerge v8.1.0 ('Psychedelic Postcard') 32bit Writing library : libebml v1.3.1 + libmatroska v1.4.2 Video ID : 5 Format : AVC Format/Info : Advanced Video Codec Format profile : High@L4.1 Format settings : CABAC / 4 Ref Frames Format settings, CABAC : Yes Format settings, RefFrames : 4 frames Codec ID : V_MPEG4/ISO/AVC Duration : 24 min 36 s Bit rate : 5 674 kb/s Width : 1 920 pixels Height : 1 080 pixels Display aspect ratio : 16:9 Frame rate mode : Constant Frame rate : 23.976 (24000/1001) FPS Color space : YUV Chroma subsampling : 4:2:0 Bit depth : 8 bits Scan type : Progressive Bits/(Pixel*Frame) : 0.114 Stream size : 998 MiB (56%) Writing library : x264 core 148 r2705+54 9f484c1 t_mod_Custom [8-bit@all X86_64] Encoding settings : cabac=1 / ref=3 / deblock=1:0:0 / analyse=0x3:0x113 / me=hex / subme=9 / psy=1 / fade_compensate=0.00 / psy_rd=1.00:0.00 / mixed_ref=1 / me_range=16 / chroma_me=1 / trellis=1 / 8x8dct=1 / cqm=0 / deadzone=21,11 / fast_pskip=1 / chroma_qp_offset=-2 / threads=24 / lookahead_threads=2 / sliced_threads=0 / nr=0 / decimate=1 / interlaced=0 / bluray_compat=0 / constrained_intra=0 / fgo=0 / bframes=3 / b_pyramid=2 / b_adapt=2 / b_bias=0 / direct=1 / weightb=1 / open_gop=0 / weightp=2 / keyint=240 / keyint_min=23 / scenecut=40 / intra_refresh=0 / rc_lookahead=40 / rc=crf / mbtree=1 / crf=16.0000 / qcomp=0.60 / qpmin=0:0:0 / qpmax=69:69:69 / qpstep=4 / vbv_maxrate=62500 / vbv_bufsize=78125 / crf_max=0.0 / nal_hrd=none / filler=0 / ip_ratio=1.40 / aq=1:1.00 / aq-sensitivity=10.00 / aq-factor=1.00:1.00:1.00 / aq2=0 / aq3=0 Default : Yes Forced : No Audio #1 ID : 1 Format : DTS XLL Format/Info : Digital Theater Systems Commercial name : DTS-HD Master Audio Codec ID : A_DTS Duration : 24 min 36 s Bit rate mode : Variable Bit rate : 2 181 kb/s Channel(s) : 2 channels Channel layout : L R Sampling rate : 48.0 kHz Frame rate : 93.750 FPS (512 SPF) Bit depth : 24 bits Compression mode : Lossless Stream size : 384 MiB (22%) Title : Deutsch Language : German Default : Yes Forced : No Audio #2 ID : 2 Format : DTS XLL Format/Info : Digital Theater Systems Commercial name : DTS-HD Master Audio Codec ID : A_DTS Duration : 24 min 36 s Bit rate mode : Variable Bit rate : 2 154 kb/s Channel(s) : 2 channels Channel layout : L R Sampling rate : 48.0 kHz Frame rate : 93.750 FPS (512 SPF) Bit depth : 24 bits Compression mode : Lossless Stream size : 379 MiB (21%) Title : Japanisch Language : Japanese Default : No Forced : No Text #1 ID : 3 Format : PGS Muxing mode : zlib Codec ID : S_HDMV/PGS Codec ID/Info : Picture based subtitle format used on BDs/HD-DVDs Duration : 23 min 17 s Bit rate : 9 214 b/s Count of elements : 202 Stream size : 1.54 MiB (0%) Title : Deutsch [Forced] Language : German Default : Yes Forced : No Text #2 ID : 4 Format : PGS Muxing mode : zlib Codec ID : S_HDMV/PGS Codec ID/Info : Picture based subtitle format used on BDs/HD-DVDs Duration : 24 min 20 s Bit rate : 31.0 kb/s Count of elements : 784 Stream size : 5.39 MiB (0%) Title : Deutsch [Full] Language : German Default : No Forced : No ​

    Anmerkung:
    Dies ist ein Original BluRay Encode.

    408p:[​IMG]720p:[​IMG]1080p:[​IMG]1080p DTS:[​IMG]

    Geschützter Bereich
    Registriere dich oder logge dich ein, um den Inhalt sehen zu können
     
    Vagabund, knanime, greatcwwc und 51 anderen gefällt das.
  2. ClipperSunny

    ClipperSunny 100% Anime Otaku König

    Registriert seit:
    27. Jan. 2018
    Beiträge:
    341
    Zustimmungen:
    8.789
    Danmachi: Is It Wrong to Try to Pick Up Girls in a Dungeon? OVA
    Dungeon ni Deai o Motomeru no wa Machigatte Iru Darou ka: Familia Myth OVA
    Is It Wrong to Try to Pick Up Girls in a Dungeon? Is It Wrong to Try to Soak in a Hot Spring in a Dungeon?
    Dungeon ni Deai o Motomeru no wa Machigatte Iru Darouka: Familia Myth OVA, Is It Wrong to Try to Pick Up Girls in a Dungeon? Familia Myth OVA, DanMachi OVA

    [​IMG]
    Dungeon ni Deai o Motomeru no wa Machigatte Iru Darou ka: Familia Myth OVA | Danmachi: Is It Wrong to Try to Pick Up Girls in a Dungeon? OVA [Ger-Jap-Dub][Ger-Sub][MP3|AC-3|DTS-HD][408p|720p|1080p][BluRay] - AST4u

    Animeinformationen
    Kurzbeschreibung by AniSearch.de
    In dieser OVA begeben sich Bell Cranel und seine Gruppe, nach dem Kampf gegen den Goliat, auf den Rückweg aus der 18. Ebene, um Hestia und Hermes zurück an die Oberfläche zu bringen. Unterwegs stößt die Gruppe zufällig auf einen geheimen Pfad und ein etwas anderes Abenteuer beginnt.


    Studio: J.C.STAFF
    Genre: Actionkomödie
    Nebengenre: Abenteuer, Action, Ecchi, Fantasy, Ganbatte, Harem, Komödie, Romanze
    Spieldauer: 25 Min.
    Jahr: 2016

    Releaseinformationen
    Episoden: 1 / 1
    Sprache: Deutsch, Japanisch
    Untertitel: Deutsch
    Publisher: Anime House GmbH
    Release-Gruppe: AST4u
    Quelle: BluRay
    Format: AVI | MKV
    Video-Codec: XviD | x264
    Farbtiefe: 8bit
    Audio-Codec: MP3 | AC-3 | DTS-HD
    Audio-Kanäle: GER MP3 2.0 | JAP MP3 2.0 || GER AC-3 2.0 | JAP AC-3 2.0 || GER AC-3 2.0 | JAP AC-3 2.0 || GER DTS-HD 2.0 | JAP DTS-HD 2.0
    Auflösung: 408p | 720p | 1080p
    Größe: 260 MB | 577 MB | 1.14 GB | 1.73 GB
    Hoster: Share-Online.biz

    Mediainfo
    Code:
    General
    Complete name                            : Danmach-Is.It.Wrong.to.Try.to.Pck.Up.Grls.n.a.Dungeon.OVA.German.DL.MP3.BluRay.Xvd.AST4u
    Format                                   : Matroska
    Format version                           : Version 4 / Version 2
    File size                                : 260 MiB
    Duration                                 : 24 min 36 s
    Overall bit rate                         : 1 477 kb/s
    Encoded date                             : UTC 2018-11-29 10:46:33
    Writing application                      : mkvmerge v8.1.0 ('Psychedelic Postcard') 32bit
    Writing library                          : libebml v1.3.1 + libmatroska v1.4.2
    FileExtension_Invalid                    : mkv mk3d mka mks
    
    Video
    ID                                       : 3
    Format                                   : MPEG-4 Visual
    Format profile                           : Advanced Simple@L5
    Format settings                          : BVOP2
    Format settings, BVOP                    : 2
    Format settings, QPel                    : No
    Format settings, GMC                     : No warppoints
    Format settings, Matrix                  : Default (MPEG)
    Codec ID                                 : V_MS/VFW/FOURCC / XVID
    Codec ID/Hint                            : XviD
    Duration                                 : 24 min 36 s
    Bit rate                                 : 1 052 kb/s
    Width                                    : 720 pixels
    Height                                   : 408 pixels
    Display aspect ratio                     : 16:9
    Frame rate mode                          : Constant
    Frame rate                               : 23.976 (24000/1001) FPS
    Color space                              : YUV
    Chroma subsampling                       : 4:2:0
    Bit depth                                : 8 bits
    Scan type                                : Progressive
    Compression mode                         : Lossy
    Bits/(Pixel*Frame)                       : 0.149
    Stream size                              : 185 MiB (71%)
    Writing library                          : XviD 67
    Default                                  : Yes
    Forced                                   : No
    
    Audio #1
    ID                                       : 4
    Format                                   : MPEG Audio
    Format version                           : Version 1
    Format profile                           : Layer 3
    Format settings                          : Joint stereo / MS Stereo
    Codec ID                                 : A_MPEG/L3
    Codec ID/Hint                            : MP3
    Duration                                 : 24 min 36 s
    Bit rate mode                            : Constant
    Bit rate                                 : 192 kb/s
    Channel(s)                               : 2 channels
    Sampling rate                            : 48.0 kHz
    Frame rate                               : 41.667 FPS (1152 SPF)
    Compression mode                         : Lossy
    Stream size                              : 33.8 MiB (13%)
    Writing library                          : LAME3.99r
    Encoding settings                        : -m j -V 4 -q 2 -lowpass 18.6 -b 192
    Language                                 : German
    Default                                  : Yes
    Forced                                   : No
    
    Audio #2
    ID                                       : 5
    Format                                   : MPEG Audio
    Format version                           : Version 1
    Format profile                           : Layer 3
    Format settings                          : Joint stereo / MS Stereo
    Codec ID                                 : A_MPEG/L3
    Codec ID/Hint                            : MP3
    Duration                                 : 24 min 36 s
    Bit rate mode                            : Constant
    Bit rate                                 : 192 kb/s
    Channel(s)                               : 2 channels
    Sampling rate                            : 48.0 kHz
    Frame rate                               : 41.667 FPS (1152 SPF)
    Compression mode                         : Lossy
    Stream size                              : 33.8 MiB (13%)
    Writing library                          : LAME3.99r
    Encoding settings                        : -m j -V 4 -q 2 -lowpass 18.6 -b 192
    Language                                 : Japanese
    Default                                  : No
    Forced                                   : No
    
    Text #1
    ID                                       : 1
    Format                                   : PGS
    Muxing mode                              : zlib
    Codec ID                                 : S_HDMV/PGS
    Codec ID/Info                            : Picture based subtitle format used on BDs/HD-DVDs
    Duration                                 : 23 min 17 s
    Bit rate                                 : 9 214 b/s
    Count of elements                        : 202
    Stream size                              : 1.54 MiB (1%)
    Language                                 : German
    Default                                  : Yes
    Forced                                   : No
    
    Text #2
    ID                                       : 2
    Format                                   : PGS
    Muxing mode                              : zlib
    Codec ID                                 : S_HDMV/PGS
    Codec ID/Info                            : Picture based subtitle format used on BDs/HD-DVDs
    Duration                                 : 24 min 20 s
    Bit rate                                 : 31.0 kb/s
    Count of elements                        : 784
    Stream size                              : 5.39 MiB (2%)
    Language                                 : German
    Default                                  : No
    Forced                                   : No
    
    Code:
    General
    Complete name                            : Danmach-Is.It.Wrong.to.Try.to.Pck.Up.Grls.n.a.Dungeon.OVA.German.AC3.DL.720p.BluRay.x264-AST4u
    Format                                   : Matroska
    Format version                           : Version 4 / Version 2
    File size                                : 577 MiB
    Duration                                 : 24 min 36 s
    Overall bit rate                         : 3 279 kb/s
    Encoded date                             : UTC 2018-11-29 10:38:24
    Writing application                      : mkvmerge v8.1.0 ('Psychedelic Postcard') 32bit
    Writing library                          : libebml v1.3.1 + libmatroska v1.4.2
    
    Video
    ID                                       : 3
    Format                                   : AVC
    Format/Info                              : Advanced Video Codec
    Format profile                           : High@L4.1
    Format settings                          : CABAC / 4 Ref Frames
    Format settings, CABAC                   : Yes
    Format settings, ReFrames                : 4 frames
    Codec ID                                 : V_MPEG4/ISO/AVC
    Duration                                 : 24 min 36 s
    Bit rate                                 : 2 341 kb/s
    Width                                    : 1 280 pixels
    Height                                   : 720 pixels
    Display aspect ratio                     : 16:9
    Frame rate mode                          : Constant
    Frame rate                               : 23.976 (24000/1001) FPS
    Color space                              : YUV
    Chroma subsampling                       : 4:2:0
    Bit depth                                : 8 bits
    Scan type                                : Progressive
    Bits/(Pixel*Frame)                       : 0.106
    Stream size                              : 412 MiB (71%)
    Writing library                          : x264 core 148 r2705+54 9f484c1 t_mod_Custom [8-bit@all X86_64]
    Encoding settings                        : cabac=1 / ref=3 / deblock=1:0:0 / analyse=0x3:0x113 / me=hex / subme=9 / psy=1 / fade_compensate=0.00 / psy_rd=1.00:0.00 / mixed_ref=1 / me_range=16 / chroma_me=1 / trellis=1 / 8x8dct=1 / cqm=0 / deadzone=21,11 / fast_pskip=1 / chroma_qp_offset=-2 / threads=12 / lookahead_threads=1 / sliced_threads=0 / nr=0 / decimate=1 / interlaced=0 / bluray_compat=0 / constrained_intra=0 / fgo=0 / bframes=3 / b_pyramid=2 / b_adapt=2 / b_bias=0 / direct=1 / weightb=1 / open_gop=0 / weightp=2 / keyint=240 / keyint_min=23 / scenecut=40 / intra_refresh=0 / rc_lookahead=40 / rc=crf / mbtree=1 / crf=16.0000 / qcomp=0.60 / qpmin=0:0:0 / qpmax=69:69:69 / qpstep=4 / vbv_maxrate=62500 / vbv_bufsize=78125 / crf_max=0.0 / nal_hrd=none / filler=0 / ip_ratio=1.40 / aq=1:1.00 / aq-sensitivity=10.00 / aq-factor=1.00:1.00:1.00 / aq2=0 / aq3=0
    Default                                  : Yes
    Forced                                   : No
    
    Audio #1
    ID                                       : 4
    Format                                   : AC-3
    Format/Info                              : Audio Coding 3
    Codec ID                                 : A_AC3
    Duration                                 : 24 min 36 s
    Bit rate mode                            : Constant
    Bit rate                                 : 448 kb/s
    Channel(s)                               : 2 channels
    Channel positions                        : Front: L R
    Sampling rate                            : 48.0 kHz
    Frame rate                               : 31.250 FPS (1536 SPF)
    Bit depth                                : 16 bits
    Compression mode                         : Lossy
    Stream size                              : 78.8 MiB (14%)
    Language                                 : German
    Service kind                             : Complete Main
    Default                                  : Yes
    Forced                                   : No
    
    Audio #2
    ID                                       : 5
    Format                                   : AC-3
    Format/Info                              : Audio Coding 3
    Codec ID                                 : A_AC3
    Duration                                 : 24 min 36 s
    Bit rate mode                            : Constant
    Bit rate                                 : 448 kb/s
    Channel(s)                               : 2 channels
    Channel positions                        : Front: L R
    Sampling rate                            : 48.0 kHz
    Frame rate                               : 31.250 FPS (1536 SPF)
    Bit depth                                : 16 bits
    Compression mode                         : Lossy
    Stream size                              : 78.8 MiB (14%)
    Language                                 : Japanese
    Service kind                             : Complete Main
    Default                                  : No
    Forced                                   : No
    
    Text #1
    ID                                       : 1
    Format                                   : PGS
    Muxing mode                              : zlib
    Codec ID                                 : S_HDMV/PGS
    Codec ID/Info                            : Picture based subtitle format used on BDs/HD-DVDs
    Duration                                 : 23 min 17 s
    Bit rate                                 : 9 214 b/s
    Count of elements                        : 202
    Stream size                              : 1.54 MiB (0%)
    Language                                 : German
    Default                                  : Yes
    Forced                                   : No
    
    Text #2
    ID                                       : 2
    Format                                   : PGS
    Muxing mode                              : zlib
    Codec ID                                 : S_HDMV/PGS
    Codec ID/Info                            : Picture based subtitle format used on BDs/HD-DVDs
    Duration                                 : 24 min 20 s
    Bit rate                                 : 31.0 kb/s
    Count of elements                        : 784
    Stream size                              : 5.39 MiB (1%)
    Language                                 : German
    Default                                  : No
    Forced                                   : No
    
    Code:
    General
    Complete name                            : Danmach-Is.It.Wrong.to.Try.to.Pck.Up.Grls.n.a.Dungeon.OVA.German.AC3.DL.1080p.BluRay.x264-AST4u
    Format                                   : Matroska
    Format version                           : Version 4 / Version 2
    File size                                : 1.14 GiB
    Duration                                 : 24 min 36 s
    Overall bit rate                         : 6 611 kb/s
    Encoded date                             : UTC 2018-11-29 10:40:45
    Writing application                      : mkvmerge v8.1.0 ('Psychedelic Postcard') 32bit
    Writing library                          : libebml v1.3.1 + libmatroska v1.4.2
    
    Video
    ID                                       : 3
    Format                                   : AVC
    Format/Info                              : Advanced Video Codec
    Format profile                           : High@L4.1
    Format settings                          : CABAC / 4 Ref Frames
    Format settings, CABAC                   : Yes
    Format settings, ReFrames                : 4 frames
    Codec ID                                 : V_MPEG4/ISO/AVC
    Duration                                 : 24 min 36 s
    Bit rate                                 : 5 674 kb/s
    Width                                    : 1 920 pixels
    Height                                   : 1 080 pixels
    Display aspect ratio                     : 16:9
    Frame rate mode                          : Constant
    Frame rate                               : 23.976 (24000/1001) FPS
    Color space                              : YUV
    Chroma subsampling                       : 4:2:0
    Bit depth                                : 8 bits
    Scan type                                : Progressive
    Bits/(Pixel*Frame)                       : 0.114
    Stream size                              : 998 MiB (86%)
    Writing library                          : x264 core 148 r2705+54 9f484c1 t_mod_Custom [8-bit@all X86_64]
    Encoding settings                        : cabac=1 / ref=3 / deblock=1:0:0 / analyse=0x3:0x113 / me=hex / subme=9 / psy=1 / fade_compensate=0.00 / psy_rd=1.00:0.00 / mixed_ref=1 / me_range=16 / chroma_me=1 / trellis=1 / 8x8dct=1 / cqm=0 / deadzone=21,11 / fast_pskip=1 / chroma_qp_offset=-2 / threads=24 / lookahead_threads=2 / sliced_threads=0 / nr=0 / decimate=1 / interlaced=0 / bluray_compat=0 / constrained_intra=0 / fgo=0 / bframes=3 / b_pyramid=2 / b_adapt=2 / b_bias=0 / direct=1 / weightb=1 / open_gop=0 / weightp=2 / keyint=240 / keyint_min=23 / scenecut=40 / intra_refresh=0 / rc_lookahead=40 / rc=crf / mbtree=1 / crf=16.0000 / qcomp=0.60 / qpmin=0:0:0 / qpmax=69:69:69 / qpstep=4 / vbv_maxrate=62500 / vbv_bufsize=78125 / crf_max=0.0 / nal_hrd=none / filler=0 / ip_ratio=1.40 / aq=1:1.00 / aq-sensitivity=10.00 / aq-factor=1.00:1.00:1.00 / aq2=0 / aq3=0
    Default                                  : Yes
    Forced                                   : No
    
    Audio #1
    ID                                       : 4
    Format                                   : AC-3
    Format/Info                              : Audio Coding 3
    Codec ID                                 : A_AC3
    Duration                                 : 24 min 36 s
    Bit rate mode                            : Constant
    Bit rate                                 : 448 kb/s
    Channel(s)                               : 2 channels
    Channel positions                        : Front: L R
    Sampling rate                            : 48.0 kHz
    Frame rate                               : 31.250 FPS (1536 SPF)
    Bit depth                                : 16 bits
    Compression mode                         : Lossy
    Stream size                              : 78.8 MiB (7%)
    Language                                 : German
    Service kind                             : Complete Main
    Default                                  : Yes
    Forced                                   : No
    
    Audio #2
    ID                                       : 5
    Format                                   : AC-3
    Format/Info                              : Audio Coding 3
    Codec ID                                 : A_AC3
    Duration                                 : 24 min 36 s
    Bit rate mode                            : Constant
    Bit rate                                 : 448 kb/s
    Channel(s)                               : 2 channels
    Channel positions                        : Front: L R
    Sampling rate                            : 48.0 kHz
    Frame rate                               : 31.250 FPS (1536 SPF)
    Bit depth                                : 16 bits
    Compression mode                         : Lossy
    Stream size                              : 78.8 MiB (7%)
    Language                                 : Japanese
    Service kind                             : Complete Main
    Default                                  : No
    Forced                                   : No
    
    Text #1
    ID                                       : 1
    Format                                   : PGS
    Muxing mode                              : zlib
    Codec ID                                 : S_HDMV/PGS
    Codec ID/Info                            : Picture based subtitle format used on BDs/HD-DVDs
    Duration                                 : 23 min 17 s
    Bit rate                                 : 9 214 b/s
    Count of elements                        : 202
    Stream size                              : 1.54 MiB (0%)
    Language                                 : German
    Default                                  : Yes
    Forced                                   : No
    
    Text #2
    ID                                       : 2
    Format                                   : PGS
    Muxing mode                              : zlib
    Codec ID                                 : S_HDMV/PGS
    Codec ID/Info                            : Picture based subtitle format used on BDs/HD-DVDs
    Duration                                 : 24 min 20 s
    Bit rate                                 : 31.0 kb/s
    Count of elements                        : 784
    Stream size                              : 5.39 MiB (0%)
    Language                                 : German
    Default                                  : No
    Forced                                   : No
    
    Code:
    General
    Complete name                            : Danmach-Is.It.Wrong.to.Try.to.Pck.Up.Grls.n.a.Dungeon.OVA.German.DTS.2.0.DL.1080p.BluRay.x264-AST4u
    Format                                   : Matroska
    Format version                           : Version 4 / Version 2
    File size                                : 1.73 GiB
    Duration                                 : 24 min 36 s
    Overall bit rate                         : 10.1 Mb/s
    Encoded date                             : UTC 2018-11-29 10:41:24
    Writing application                      : mkvmerge v8.1.0 ('Psychedelic Postcard') 32bit
    Writing library                          : libebml v1.3.1 + libmatroska v1.4.2
    
    Video
    ID                                       : 5
    Format                                   : AVC
    Format/Info                              : Advanced Video Codec
    Format profile                           : High@L4.1
    Format settings                          : CABAC / 4 Ref Frames
    Format settings, CABAC                   : Yes
    Format settings, ReFrames                : 4 frames
    Codec ID                                 : V_MPEG4/ISO/AVC
    Duration                                 : 24 min 36 s
    Bit rate                                 : 5 674 kb/s
    Width                                    : 1 920 pixels
    Height                                   : 1 080 pixels
    Display aspect ratio                     : 16:9
    Frame rate mode                          : Constant
    Frame rate                               : 23.976 (24000/1001) FPS
    Color space                              : YUV
    Chroma subsampling                       : 4:2:0
    Bit depth                                : 8 bits
    Scan type                                : Progressive
    Bits/(Pixel*Frame)                       : 0.114
    Stream size                              : 998 MiB (56%)
    Writing library                          : x264 core 148 r2705+54 9f484c1 t_mod_Custom [8-bit@all X86_64]
    Encoding settings                        : cabac=1 / ref=3 / deblock=1:0:0 / analyse=0x3:0x113 / me=hex / subme=9 / psy=1 / fade_compensate=0.00 / psy_rd=1.00:0.00 / mixed_ref=1 / me_range=16 / chroma_me=1 / trellis=1 / 8x8dct=1 / cqm=0 / deadzone=21,11 / fast_pskip=1 / chroma_qp_offset=-2 / threads=24 / lookahead_threads=2 / sliced_threads=0 / nr=0 / decimate=1 / interlaced=0 / bluray_compat=0 / constrained_intra=0 / fgo=0 / bframes=3 / b_pyramid=2 / b_adapt=2 / b_bias=0 / direct=1 / weightb=1 / open_gop=0 / weightp=2 / keyint=240 / keyint_min=23 / scenecut=40 / intra_refresh=0 / rc_lookahead=40 / rc=crf / mbtree=1 / crf=16.0000 / qcomp=0.60 / qpmin=0:0:0 / qpmax=69:69:69 / qpstep=4 / vbv_maxrate=62500 / vbv_bufsize=78125 / crf_max=0.0 / nal_hrd=none / filler=0 / ip_ratio=1.40 / aq=1:1.00 / aq-sensitivity=10.00 / aq-factor=1.00:1.00:1.00 / aq2=0 / aq3=0
    Default                                  : Yes
    Forced                                   : No
    
    Audio #1
    ID                                       : 1
    Format                                   : DTS
    Format/Info                              : Digital Theater Systems
    Format profile                           : MA / Core
    Codec ID                                 : A_DTS
    Duration                                 : 24 min 36 s
    Bit rate mode                            : Variable / Constant
    Bit rate                                 : 2 181 kb/s / 1 509 kb/s
    Channel(s)                               : 2 channels
    Channel positions                        : Front: L R
    Sampling rate                            : 48.0 kHz
    Frame rate                               : 93.750 FPS (512 SPF)
    Bit depth                                : 24 bits
    Compression mode                         : Lossless / Lossy
    Stream size                              : 384 MiB (22%)
    Language                                 : German
    Default                                  : Yes
    Forced                                   : No
    
    Audio #2
    ID                                       : 2
    Format                                   : DTS
    Format/Info                              : Digital Theater Systems
    Format profile                           : MA / Core
    Codec ID                                 : A_DTS
    Duration                                 : 24 min 36 s
    Bit rate mode                            : Variable / Constant
    Bit rate                                 : 2 154 kb/s / 1 509 kb/s
    Channel(s)                               : 2 channels
    Channel positions                        : Front: L R
    Sampling rate                            : 48.0 kHz
    Frame rate                               : 93.750 FPS (512 SPF)
    Bit depth                                : 24 bits
    Compression mode                         : Lossless / Lossy
    Stream size                              : 379 MiB (21%)
    Language                                 : Japanese
    Default                                  : No
    Forced                                   : No
    
    Text #1
    ID                                       : 3
    Format                                   : PGS
    Muxing mode                              : zlib
    Codec ID                                 : S_HDMV/PGS
    Codec ID/Info                            : Picture based subtitle format used on BDs/HD-DVDs
    Duration                                 : 23 min 17 s
    Bit rate                                 : 9 214 b/s
    Count of elements                        : 202
    Stream size                              : 1.54 MiB (0%)
    Language                                 : German
    Default                                  : Yes
    Forced                                   : No
    
    Text #2
    ID                                       : 4
    Format                                   : PGS
    Muxing mode                              : zlib
    Codec ID                                 : S_HDMV/PGS
    Codec ID/Info                            : Picture based subtitle format used on BDs/HD-DVDs
    Duration                                 : 24 min 20 s
    Bit rate                                 : 31.0 kb/s
    Count of elements                        : 784
    Stream size                              : 5.39 MiB (0%)
    Language                                 : German
    Default                                  : No
    Forced                                   : No
    
    [​IMG]
    Onlinestatus:
    [​IMG]Xvid MP3 | [​IMG]720p AC3 | [​IMG]1080p AC3 | [​IMG]1080p DTS-HD
    Geschützter Bereich
    Registriere dich oder logge dich ein, um den Inhalt sehen zu können