Wir verwenden Cookies, um deinen Aufenthalt auf Animes.so möglichst angenehm gestalten zu können. Mehr erfahren

Death Note [Laufend][Ger-Jap-Dub][Ger-Sub][AC-3|DTS-HD][404p|720p|1080p][BluRay] - AST4u

Dieses Thema im Forum "Download Archiv" wurde erstellt von Ta@, 22. März 2019.

  1. Ta@

    Ta@ Erfahrener Otaku Otaku König

    Registriert seit:
    7. Juli 2016
    Beiträge:
    219
    Zustimmungen:
    18.439
    Death Note
    DN

    [​IMG]
    [​IMG]

    Der hochbegabte Schüler Light Yagami findet ein geheimnisvolles Notizbuch, das Shinigami Ryuk, ein Todesgott, aus Langeweile in der Welt der Menschen zurückgelassen hat. Laut Gebrauchsanweisung stirbt jeder Mensch, dessen Namen man in dieses Death Note schreibt. Obwohl Light zunächst skeptisch ist, probiert er das Buch aus und stellt schnell fest, dass aus dem Spiel tödlicher Ernst wird. Doch statt die Finger vom Death Note zu lassen, brennt er darauf, alles Böse auszulöschen und die Welt radikal zu verändern. Als aber immer mehr Verbrecher auf dieselbe mysteriöse Weise sterben, heuert Interpol den berühmt-berüchtigten Privatermittler L an. Das Katz-und-Maus-Spiel beginnt …

    Folgen: 18/37
    Größe pro Folge: ~300 MB/~1100 MB/~2250 MB/~2500 MB
    Folgendauer: ~24 Min
    Releaser: AST4u
    Art: Lizenzrelease
    Sprache: Japanisch, Deutsch
    Untertitel: Deutsch
    Jahr: 2006
    Genres: Drama, Fantasy, Horror, Krimi, Mystery, Psychodrama, Thriller
    Auflösung: 720x404/1280x720/1920x1080
    Format: MKV
    Quelle: BluRay
    Videocodec: x264
    Farbtiefe: 8Bit
    Audiocodec: AC3/DTS
    Publisher: KAZÉ Anime
    Hoster: Share-Online

    [​IMG]
    Code:
    General Complete name : Death.Note.Ep01.German.AC3.DL.BDRip.x264-AST4u.mkv Format : Matroska Format version : Version 4 File size : 395 MiB Duration : 23 min 3 s Overall bit rate : 2 394 kb/s Encoded date : UTC 2019-03-20 08:45:52 Writing application : mkvmerge v15.0.0 ('Duel with the Devil') 64-bit Writing library : libebml v1.3.5 + libmatroska v1.4.5 Video ID : 1 Format : AVC Format/Info : Advanced Video Codec Format profile : High@L4.1 Format settings : CABAC / 4 Ref Frames Format settings, CABAC : Yes Format settings, RefFrames : 4 frames Codec ID : V_MPEG4/ISO/AVC Duration : 23 min 3 s Bit rate : 1 603 kb/s Width : 720 pixels Height : 404 pixels Display aspect ratio : 16:9 Frame rate mode : Constant Frame rate : 23.976 (24000/1001) FPS Color space : YUV Chroma subsampling : 4:2:0 Bit depth : 8 bits Scan type : Progressive Bits/(Pixel*Frame) : 0.230 Stream size : 264 MiB (67%) Writing library : x264 core 152 r2851 ba24899 Encoding settings : cabac=1 / ref=3 / deblock=1:1:1 / analyse=0x3:0x133 / me=umh / subme=9 / psy=1 / psy_rd=1.00:0.00 / mixed_ref=1 / me_range=32 / chroma_me=1 / trellis=2 / 8x8dct=1 / cqm=0 / deadzone=21,11 / fast_pskip=1 / chroma_qp_offset=-2 / threads=13 / lookahead_threads=1 / sliced_threads=0 / nr=0 / decimate=1 / interlaced=0 / bluray_compat=0 / constrained_intra=0 / bframes=3 / b_pyramid=2 / b_adapt=2 / b_bias=0 / direct=3 / weightb=1 / open_gop=0 / weightp=2 / keyint=250 / keyint_min=25 / scenecut=40 / intra_refresh=0 / rc_lookahead=48 / rc=crf / mbtree=1 / crf=16.0 / qcomp=0.60 / qpmin=0 / qpmax=69 / qpstep=4 / ip_ratio=1.40 / aq=3:1.00 Default : Yes Forced : No Color range : Limited Matrix coefficients : BT.709 Audio #1 ID : 2 Format : AC-3 Format/Info : Audio Coding 3 Commercial name : Dolby Digital Codec ID : A_AC3 Duration : 23 min 3 s Bit rate mode : Constant Bit rate : 384 kb/s Channel(s) : 2 channels Channel layout : L R Sampling rate : 48.0 kHz Frame rate : 31.250 FPS (1536 SPF) Bit depth : 16 bits Compression mode : Lossy Stream size : 63.3 MiB (16%) Language : German Service kind : Complete Main Default : Yes Forced : No Audio #2 ID : 3 Format : AC-3 Format/Info : Audio Coding 3 Commercial name : Dolby Digital Codec ID : A_AC3 Duration : 23 min 3 s Bit rate mode : Constant Bit rate : 384 kb/s Channel(s) : 2 channels Channel layout : L R Sampling rate : 48.0 kHz Frame rate : 31.250 FPS (1536 SPF) Bit depth : 16 bits Compression mode : Lossy Stream size : 63.3 MiB (16%) Language : Japanese Service kind : Complete Main Default : No Forced : No Text ID : 4 Format : PGS Muxing mode : zlib Codec ID : S_HDMV/PGS Codec ID/Info : Picture based subtitle format used on BDs/HD-DVDs Duration : 20 min 46 s Bit rate : 41.6 kb/s Count of elements : 436 Stream size : 6.18 MiB (2%) Language : German Default : No Forced : No ​
    Code:
    General Complete name : Death.Note.Ep01.German.AC3.DL.720p.BluRay.x264-AST4u.mkv Format : Matroska Format version : Version 4 File size : 1.26 GiB Duration : 23 min 3 s Overall bit rate : 7 804 kb/s Encoded date : UTC 2019-03-20 04:54:29 Writing application : mkvmerge v15.0.0 ('Duel with the Devil') 64-bit Writing library : libebml v1.3.5 + libmatroska v1.4.5 Video ID : 1 Format : AVC Format/Info : Advanced Video Codec Format profile : High@L4.1 Format settings : CABAC / 4 Ref Frames Format settings, CABAC : Yes Format settings, RefFrames : 4 frames Codec ID : V_MPEG4/ISO/AVC Duration : 23 min 3 s Bit rate : 6 885 kb/s Width : 1 280 pixels Height : 720 pixels Display aspect ratio : 16:9 Frame rate mode : Constant Frame rate : 23.976 (24000/1001) FPS Color space : YUV Chroma subsampling : 4:2:0 Bit depth : 8 bits Scan type : Progressive Bits/(Pixel*Frame) : 0.312 Stream size : 1.11 GiB (88%) Writing library : x264 core 152 r2851 ba24899 Encoding settings : cabac=1 / ref=3 / deblock=1:1:1 / analyse=0x3:0x133 / me=umh / subme=9 / psy=1 / psy_rd=1.00:0.00 / mixed_ref=1 / me_range=32 / chroma_me=1 / trellis=2 / 8x8dct=1 / cqm=0 / deadzone=21,11 / fast_pskip=1 / chroma_qp_offset=-2 / threads=22 / lookahead_threads=1 / sliced_threads=0 / nr=0 / decimate=1 / interlaced=0 / bluray_compat=0 / constrained_intra=0 / bframes=3 / b_pyramid=2 / b_adapt=2 / b_bias=0 / direct=3 / weightb=1 / open_gop=0 / weightp=2 / keyint=250 / keyint_min=25 / scenecut=40 / intra_refresh=0 / rc_lookahead=48 / rc=crf / mbtree=1 / crf=16.0 / qcomp=0.60 / qpmin=0 / qpmax=69 / qpstep=4 / ip_ratio=1.40 / aq=3:1.00 Default : Yes Forced : No Color range : Limited Matrix coefficients : BT.709 Audio #1 ID : 2 Format : AC-3 Format/Info : Audio Coding 3 Commercial name : Dolby Digital Codec ID : A_AC3 Duration : 23 min 3 s Bit rate mode : Constant Bit rate : 448 kb/s Channel(s) : 2 channels Channel layout : L R Sampling rate : 48.0 kHz Frame rate : 31.250 FPS (1536 SPF) Bit depth : 16 bits Compression mode : Lossy Stream size : 73.9 MiB (6%) Language : German Service kind : Complete Main Default : Yes Forced : No Audio #2 ID : 3 Format : AC-3 Format/Info : Audio Coding 3 Commercial name : Dolby Digital Codec ID : A_AC3 Duration : 23 min 3 s Bit rate mode : Constant Bit rate : 448 kb/s Channel(s) : 2 channels Channel layout : L R Sampling rate : 48.0 kHz Frame rate : 31.250 FPS (1536 SPF) Bit depth : 16 bits Compression mode : Lossy Stream size : 73.9 MiB (6%) Language : Japanese Service kind : Complete Main Default : No Forced : No Text ID : 4 Format : PGS Muxing mode : zlib Codec ID : S_HDMV/PGS Codec ID/Info : Picture based subtitle format used on BDs/HD-DVDs Duration : 20 min 46 s Bit rate : 41.6 kb/s Count of elements : 436 Stream size : 6.18 MiB (0%) Language : German Default : No Forced : No ​
    Code:
    General Complete name : Death.Note.Ep01.German.AC3.DL.1080p.BluRay.x264-AST4u.mkv Format : Matroska Format version : Version 4 File size : 2.78 GiB Duration : 23 min 3 s Overall bit rate : 17.3 Mb/s Encoded date : UTC 2019-03-19 20:30:42 Writing application : mkvmerge v15.0.0 ('Duel with the Devil') 64-bit Writing library : libebml v1.3.5 + libmatroska v1.4.5 Video ID : 1 Format : AVC Format/Info : Advanced Video Codec Format profile : High@L4.1 Format settings : CABAC / 4 Ref Frames Format settings, CABAC : Yes Format settings, RefFrames : 4 frames Codec ID : V_MPEG4/ISO/AVC Duration : 23 min 3 s Bit rate : 16.4 Mb/s Width : 1 920 pixels Height : 1 080 pixels Display aspect ratio : 16:9 Frame rate mode : Constant Frame rate : 23.976 (24000/1001) FPS Color space : YUV Chroma subsampling : 4:2:0 Bit depth : 8 bits Scan type : Progressive Bits/(Pixel*Frame) : 0.329 Stream size : 2.63 GiB (95%) Writing library : x264 core 152 r2851 ba24899 Encoding settings : cabac=1 / ref=3 / deblock=1:1:1 / analyse=0x3:0x133 / me=umh / subme=9 / psy=1 / psy_rd=1.00:0.00 / mixed_ref=1 / me_range=32 / chroma_me=1 / trellis=2 / 8x8dct=1 / cqm=0 / deadzone=21,11 / fast_pskip=1 / chroma_qp_offset=-2 / threads=24 / lookahead_threads=2 / sliced_threads=0 / nr=0 / decimate=1 / interlaced=0 / bluray_compat=0 / constrained_intra=0 / bframes=3 / b_pyramid=2 / b_adapt=2 / b_bias=0 / direct=3 / weightb=1 / open_gop=0 / weightp=2 / keyint=250 / keyint_min=25 / scenecut=40 / intra_refresh=0 / rc_lookahead=48 / rc=crf / mbtree=1 / crf=16.0 / qcomp=0.60 / qpmin=0 / qpmax=69 / qpstep=4 / ip_ratio=1.40 / aq=3:1.00 Default : Yes Forced : No Color range : Limited Matrix coefficients : BT.709 Audio #1 ID : 2 Format : AC-3 Format/Info : Audio Coding 3 Commercial name : Dolby Digital Codec ID : A_AC3 Duration : 23 min 3 s Bit rate mode : Constant Bit rate : 448 kb/s Channel(s) : 2 channels Channel layout : L R Sampling rate : 48.0 kHz Frame rate : 31.250 FPS (1536 SPF) Bit depth : 16 bits Compression mode : Lossy Stream size : 73.9 MiB (3%) Language : German Service kind : Complete Main Default : Yes Forced : No Audio #2 ID : 3 Format : AC-3 Format/Info : Audio Coding 3 Commercial name : Dolby Digital Codec ID : A_AC3 Duration : 23 min 3 s Bit rate mode : Constant Bit rate : 448 kb/s Channel(s) : 2 channels Channel layout : L R Sampling rate : 48.0 kHz Frame rate : 31.250 FPS (1536 SPF) Bit depth : 16 bits Compression mode : Lossy Stream size : 73.9 MiB (3%) Language : Japanese Service kind : Complete Main Default : No Forced : No Text ID : 4 Format : PGS Muxing mode : zlib Codec ID : S_HDMV/PGS Codec ID/Info : Picture based subtitle format used on BDs/HD-DVDs Duration : 20 min 46 s Bit rate : 41.6 kb/s Count of elements : 436 Stream size : 6.18 MiB (0%) Language : German Default : No Forced : No ​
    Code:
    General Complete name : Death.Note.Ep01.German.DTS.2.0.DL.1080p.BluRay.x264-AST4u.mkv Format : Matroska Format version : Version 4 File size : 2.96 GiB Duration : 23 min 3 s Overall bit rate mode : Variable Overall bit rate : 18.4 Mb/s Encoded date : UTC 2019-03-20 17:20:34 Writing application : mkvmerge v19.0.0 ('Brave Captain') 64-bit Writing library : libebml v1.3.5 + libmatroska v1.4.8 Video ID : 1 Format : AVC Format/Info : Advanced Video Codec Format profile : High@L4.1 Format settings : CABAC / 4 Ref Frames Format settings, CABAC : Yes Format settings, RefFrames : 4 frames Codec ID : V_MPEG4/ISO/AVC Duration : 23 min 3 s Bit rate : 16.4 Mb/s Width : 1 920 pixels Height : 1 080 pixels Display aspect ratio : 16:9 Frame rate mode : Constant Frame rate : 23.976 (24000/1001) FPS Color space : YUV Chroma subsampling : 4:2:0 Bit depth : 8 bits Scan type : Progressive Bits/(Pixel*Frame) : 0.329 Stream size : 2.63 GiB (89%) Writing library : x264 core 152 r2851 ba24899 Encoding settings : cabac=1 / ref=3 / deblock=1:1:1 / analyse=0x3:0x133 / me=umh / subme=9 / psy=1 / psy_rd=1.00:0.00 / mixed_ref=1 / me_range=32 / chroma_me=1 / trellis=2 / 8x8dct=1 / cqm=0 / deadzone=21,11 / fast_pskip=1 / chroma_qp_offset=-2 / threads=24 / lookahead_threads=2 / sliced_threads=0 / nr=0 / decimate=1 / interlaced=0 / bluray_compat=0 / constrained_intra=0 / bframes=3 / b_pyramid=2 / b_adapt=2 / b_bias=0 / direct=3 / weightb=1 / open_gop=0 / weightp=2 / keyint=250 / keyint_min=25 / scenecut=40 / intra_refresh=0 / rc_lookahead=48 / rc=crf / mbtree=1 / crf=16.0 / qcomp=0.60 / qpmin=0 / qpmax=69 / qpstep=4 / ip_ratio=1.40 / aq=3:1.00 Default : Yes Forced : No Color range : Limited Matrix coefficients : BT.709 Audio #1 ID : 2 Format : DTS XLL Format/Info : Digital Theater Systems Commercial name : DTS-HD Master Audio Codec ID : A_DTS Duration : 23 min 3 s Bit rate mode : Variable Bit rate : 996 kb/s Channel(s) : 2 channels Channel layout : L R Sampling rate : 48.0 kHz Frame rate : 93.750 FPS (512 SPF) Bit depth : 16 bits Compression mode : Lossless Stream size : 164 MiB (5%) Language : German Default : Yes Forced : No Audio #2 ID : 3 Format : DTS XLL Format/Info : Digital Theater Systems Commercial name : DTS-HD Master Audio Codec ID : A_DTS Duration : 23 min 3 s Bit rate mode : Variable Bit rate : 1 002 kb/s Channel(s) : 2 channels Channel layout : L R Sampling rate : 48.0 kHz Frame rate : 93.750 FPS (512 SPF) Bit depth : 16 bits Compression mode : Lossless Stream size : 165 MiB (5%) Language : Japanese Default : No Forced : No Text ID : 4 Format : PGS Muxing mode : zlib Codec ID : S_HDMV/PGS Codec ID/Info : Picture based subtitle format used on BDs/HD-DVDs Duration : 20 min 46 s Bit rate : 41.6 kb/s Count of elements : 436 Stream size : 6.18 MiB (0%) Language : German Default : No Forced : No ​

    Anmerkung:
    Dies ist ein Original BluRay Encode.

    408p:[​IMG]720p:[​IMG]1080p:[​IMG]1080p DTS:[​IMG]

    Geschützter Bereich
    Registriere dich oder logge dich ein, um den Inhalt sehen zu können
     
    koax, Son Goku, Kaffee333 und 13 anderen gefällt das.

Diese Seite empfehlen