1. Die erweiterte Suche funktioniert wieder. Die LiveSearch ist vorübergehend deaktiviert

Wir verwenden Cookies, um deinen Aufenthalt auf Animes.so möglichst angenehm gestalten zu können. Mehr erfahren

Doukyonin wa Hiza, Tokidoki, Atama no Ue. | My Roommate is a Cat [Jap-Dub][Ger-Eng-Sub][720p|1080p][WebRip] - CR

Dieses Thema im Forum "Serien (GerSub)" wurde erstellt von Ta@, 24. Jan. 2019.

  1. Ta@

    Ta@ Treues Mitglied Seelenverkäufer

    Registriert seit:
    7. Juli 2016
    Beiträge:
    448
    Zustimmungen:
    16.746
    Doukyonin wa Hiza, Tokidoki, Atama no Ue.
    My Roommate is a Cat
    My Housemate Is on My Lap, But Sometimes on My Head

    [​IMG]
    [​IMG]

    Doukyonin wa Hiza, Tokidoki, Atama no Ue handelt von Subaru Mikazuki, einem schüchternen Autor, der nicht gut mit anderen Menschen umgehen kann, und Haru, einer Katze, die bisher ein ernüchterndes Streunerleben geführt hat, dann aber von Subaru als seine neue Muse aufgenommen wird. Die Serie erzählt vom gemeinsamen Leben der beiden und den dabei aufkommenden Freuden. Erzählt wird die Geschichte aus den unterschiedlichen Perspektiven der beiden.

    Folgen: 12/12
    Größe pro Folge: ~300 MB/~650 MB
    Folgendauer: ~24 Min
    Releaser: Ta@
    Art: Lizenzrelease
    Sprache: Japanisch
    Untertitel: Deutsch, Englisch
    Jahr: 2019
    Genres: Alltagsleben, Komödie, Romanze
    Auflösung: 1280x720/1920x1080
    Format: MKV
    Quelle: WebRip
    Videocodec: x264
    Farbtiefe: 8Bit
    Audiocodec: AAC
    Publisher: Crunchyroll
    Hoster: Share-Online

    [​IMG]
    Code:
    General Complete name : [Ta@]My_Roommate_is_a_Cat_01_[Web,720p,AAC].mkv Format : Matroska Format version : Version 4 File size : 315 MiB Duration : 23 min 36 s Overall bit rate : 1 864 kb/s Encoded date : UTC 2019-01-09 17:36:47 Writing application : mkvmerge v26.0.0 ('In The Game') 64-bit Writing library : libebml v1.3.6 + libmatroska v1.4.9 Attachments : font.ttf Video ID : 1 Format : AVC Format/Info : Advanced Video Codec Format profile : High@L4 Format settings : CABAC / 6 Ref Frames Format settings, CABAC : Yes Format settings, RefFrames : 6 frames Codec ID : V_MPEG4/ISO/AVC Duration : 23 min 35 s Bit rate : 1 733 kb/s Width : 1 280 pixels Height : 720 pixels Display aspect ratio : 16:9 Frame rate mode : Constant Frame rate : 23.976 (24000/1001) FPS Color space : YUV Chroma subsampling : 4:2:0 Bit depth : 8 bits Scan type : Progressive Bits/(Pixel*Frame) : 0.078 Stream size : 292 MiB (93%) Writing library : x264 core 142 Encoding settings : cabac=1 / ref=6 / deblock=1:1:1 / analyse=0x3:0x113 / me=umh / subme=8 / psy=1 / psy_rd=0.40:0.00 / mixed_ref=1 / me_range=16 / chroma_me=1 / trellis=1 / 8x8dct=1 / cqm=0 / deadzone=21,11 / fast_pskip=1 / chroma_qp_offset=-2 / threads=10 / lookahead_threads=1 / sliced_threads=0 / nr=0 / decimate=1 / interlaced=0 / bluray_compat=0 / constrained_intra=0 / bframes=3 / b_pyramid=2 / b_adapt=2 / b_bias=0 / direct=3 / weightb=1 / open_gop=0 / weightp=2 / keyint=48 / keyint_min=25 / scenecut=0 / intra_refresh=0 / rc_lookahead=48 / rc=crf / mbtree=1 / crf=15.0 / qcomp=0.60 / qpmin=0 / qpmax=69 / qpstep=4 / vbv_maxrate=4000 / vbv_bufsize=6000 / crf_max=0.0 / nal_hrd=none / filler=0 / ip_ratio=1.40 / aq=1:0.60 Default : Yes Forced : No Audio ID : 2 Format : AAC LC Format/Info : Advanced Audio Codec Low Complexity Codec ID : A_AAC-2 Duration : 23 min 35 s Bit rate : 128 kb/s Channel(s) : 2 channels Channel layout : L R Sampling rate : 44.1 kHz Frame rate : 43.066 FPS (1024 SPF) Compression mode : Lossy Delay relative to video : -83 ms Stream size : 21.6 MiB (7%) Default : Yes Forced : No Text #1 ID : 3 Format : ASS Codec ID : S_TEXT/ASS Codec ID/Info : Advanced Sub Station Alpha Duration : 23 min 29 s Bit rate : 131 b/s Count of elements : 321 Compression mode : Lossless Stream size : 22.6 KiB (0%) Language : German Default : Yes Forced : No Text #2 ID : 4 Format : ASS Codec ID : S_TEXT/ASS Codec ID/Info : Advanced Sub Station Alpha Duration : 23 min 29 s Bit rate : 126 b/s Count of elements : 315 Compression mode : Lossless Stream size : 21.8 KiB (0%) Language : English Default : No Forced : No ​
    Code:
    General Complete name : [Ta@]My_Roommate_is_a_Cat_01_[Web,1080p,AAC].mkv Format : Matroska Format version : Version 4 File size : 656 MiB Duration : 23 min 36 s Overall bit rate : 3 884 kb/s Encoded date : UTC 2019-01-09 17:36:49 Writing application : mkvmerge v26.0.0 ('In The Game') 64-bit Writing library : libebml v1.3.6 + libmatroska v1.4.9 Attachments : font.ttf Video ID : 1 Format : AVC Format/Info : Advanced Video Codec Format profile : High@L4 Format settings : CABAC / 4 Ref Frames Format settings, CABAC : Yes Format settings, RefFrames : 4 frames Codec ID : V_MPEG4/ISO/AVC Duration : 23 min 35 s Bit rate : 3 755 kb/s Width : 1 920 pixels Height : 1 080 pixels Display aspect ratio : 16:9 Frame rate mode : Constant Frame rate : 23.976 (24000/1001) FPS Color space : YUV Chroma subsampling : 4:2:0 Bit depth : 8 bits Scan type : Progressive Bits/(Pixel*Frame) : 0.076 Stream size : 633 MiB (97%) Writing library : x264 core 142 Encoding settings : cabac=1 / ref=4 / deblock=1:1:1 / analyse=0x3:0x113 / me=umh / subme=8 / psy=1 / psy_rd=0.40:0.00 / mixed_ref=1 / me_range=16 / chroma_me=1 / trellis=1 / 8x8dct=1 / cqm=0 / deadzone=21,11 / fast_pskip=1 / chroma_qp_offset=-2 / threads=12 / lookahead_threads=2 / sliced_threads=0 / nr=0 / decimate=1 / interlaced=0 / bluray_compat=0 / constrained_intra=0 / bframes=3 / b_pyramid=2 / b_adapt=2 / b_bias=0 / direct=3 / weightb=1 / open_gop=0 / weightp=2 / keyint=48 / keyint_min=25 / scenecut=0 / intra_refresh=0 / rc_lookahead=48 / rc=crf / mbtree=1 / crf=15.0 / qcomp=0.60 / qpmin=0 / qpmax=69 / qpstep=4 / vbv_maxrate=8000 / vbv_bufsize=12000 / crf_max=0.0 / nal_hrd=none / filler=0 / ip_ratio=1.40 / aq=1:0.60 Default : Yes Forced : No Audio ID : 2 Format : AAC LC Format/Info : Advanced Audio Codec Low Complexity Codec ID : A_AAC-2 Duration : 23 min 35 s Bit rate : 128 kb/s Channel(s) : 2 channels Channel layout : L R Sampling rate : 44.1 kHz Frame rate : 43.066 FPS (1024 SPF) Compression mode : Lossy Delay relative to video : -83 ms Stream size : 21.6 MiB (3%) Default : Yes Forced : No Text #1 ID : 3 Format : ASS Codec ID : S_TEXT/ASS Codec ID/Info : Advanced Sub Station Alpha Duration : 23 min 29 s Bit rate : 131 b/s Count of elements : 321 Compression mode : Lossless Stream size : 22.6 KiB (0%) Language : German Default : Yes Forced : No Text #2 ID : 4 Format : ASS Codec ID : S_TEXT/ASS Codec ID/Info : Advanced Sub Station Alpha Duration : 23 min 29 s Bit rate : 126 b/s Count of elements : 315 Compression mode : Lossless Stream size : 21.8 KiB (0%) Language : English Default : No Forced : No ​

    Anmerkung:
    Ich habe das Timing verbessert und die Font gefixt.

    720p:[​IMG]1080p:[​IMG]

    Geschützter Bereich
    Registriere dich oder logge dich ein, um den Inhalt sehen zu können
     
    Zuletzt bearbeitet: 28. März 2019
    Xehernoth, kingofings, talin10 und 43 anderen gefällt das.
  2. Ta@

    Ta@ Treues Mitglied Seelenverkäufer

    Registriert seit:
    7. Juli 2016
    Beiträge:
    448
    Zustimmungen:
    16.746
    ~Folge 12 online~
    ~Staffel/Serie abgeschlossen~
     
    chopper23 gefällt das.