1. Aktuell funktioniert unser Image Proxy nicht mehr ordnungsgemäß, sodass keine Bilder mehr angezeigt werden. Wir kümmern uns darum!

Wir verwenden Cookies, um deinen Aufenthalt auf Animes.so möglichst angenehm gestalten zu können. Mehr erfahren

Dr. Stone: Stone Wars [Ger-Dub][720p|1080p][WebRip] - AoD

Dieses Thema im Forum "Anime Serien (Deutsch)" wurde erstellt von Azugo, 25. Feb. 2021.

  1. Azugo
    Azugo

    H͓̽u͓̽g͓̽o͓̽ ͓̽&͓̽ ͓̽A͓̽z͓̽u͓̽r͓̽a͓̽ Seelenverkäufer Uploader

    Registriert seit:
    25. März 2020
    Beiträge:
    408
    Zustimmungen:
    4.757

    Dr. Stone: Stone Wars



    [​IMG]


    [​IMG]

    [​IMG]

    Spieldauer: ~24min
    Genres: Abenteuer
    Nebengenres: Abenteuer, Action, Fantasy, Komödie, Scifi
    Jahr: 2021
    Sprache: Deutsch
    Untertitel: Deutsch Forced
    Größe pro Folge: ~400mb, ~1200mb
    Episodenanzahl: 11/11
    Format: MKV
    Auflösung: 720p (16:9), 1080p (16:9)
    Videocodec: H264 (AVC)
    Audiocodec: AAC
    Releasegruppe: Hugo
    Quelle: WebRip AoD
    Hoster: ddownload, uploaded


    [​IMG]
    Code:
    Format                                   : Matroska
    Format version                           : Version 4
    File size                                : 341 MiB
    Duration                                 : 24 min 0 s
    Overall bit rate                         : 1 988 kb/s
    Encoded date                             : UTC 2021-03-04 13:59:47
    Writing application                      : mkvmerge v54.0.0 ('F Maj Pixie') 64-bit
    Writing library                          : libebml v1.4.2 + libmatroska v1.6.3
    
    Video
    ID                                       : 1
    Format                                   : AVC
    Format/Info                              : Advanced Video Codec
    Format profile                           : High@L4
    Format settings                          : CABAC / 9 Ref Frames
    Format settings, CABAC                   : Yes
    Format settings, Reference frames        : 9 frames
    Codec ID                                 : V_MPEG4/ISO/AVC
    Duration                                 : 24 min 0 s
    Bit rate                                 : 1 730 kb/s
    Width                                    : 1 280 pixels
    Height                                   : 720 pixels
    Display aspect ratio                     : 16:9
    Frame rate mode                          : Constant
    Frame rate                               : 23.976 (24000/1001) FPS
    Color space                              : YUV
    Chroma subsampling                       : 4:2:0
    Bit depth                                : 8 bits
    Scan type                                : Progressive
    Bits/(Pixel*Frame)                       : 0.078
    Stream size                              : 297 MiB (87%)
    Writing library                          : x264 core 157 r2969 d4099dd
    Encoding settings                        : cabac=1 / ref=9 / deblock=1:0:-1 / analyse=0x3:0x133 / me=umh / subme=10 / psy=1 / psy_rd=0.60:0.10 / mixed_ref=1 / me_range=24 / chroma_me=1 / trellis=2 / 8x8dct=1 / cqm=0 / deadzone=21,11 / fast_pskip=1 / chroma_qp_offset=-3 / threads=12 / lookahead_threads=3 / sliced_threads=0 / nr=0 / decimate=0 / interlaced=0 / bluray_compat=0 / constrained_intra=0 / bframes=16 / b_pyramid=2 / b_adapt=2 / b_bias=0 / direct=3 / weightb=1 / open_gop=0 / weightp=2 / keyint=192 / keyint_min=19 / scenecut=0 / intra_refresh=0 / rc_lookahead=80 / rc=crf / mbtree=1 / crf=17.0 / qcomp=0.60 / qpmin=0 / qpmax=69 / qpstep=4 / vbv_maxrate=4096 / vbv_bufsize=10240 / crf_max=0.0 / nal_hrd=none / filler=0 / ip_ratio=1.40 / aq=3:1.10
    Default                                  : Yes
    Forced                                   : No
    
    Audio
    ID                                       : 2
    Format                                   : AAC LC
    Format/Info                              : Advanced Audio Codec Low Complexity
    Codec ID                                 : A_AAC-2
    Duration                                 : 24 min 0 s
    Bit rate                                 : 256 kb/s
    Channel(s)                               : 2 channels
    Channel layout                           : L R
    Sampling rate                            : 48.0 kHz
    Frame rate                               : 46.875 FPS (1024 SPF)
    Compression mode                         : Lossy
    Delay relative to video                  : -83 ms
    Stream size                              : 43.9 MiB (13%)
    Default                                  : Yes
    Forced                                   : No
    
    
    Code:
    Format                                   : Matroska
    Format version                           : Version 4
    File size                                : 1.27 GiB
    Duration                                 : 24 min 0 s
    Overall bit rate                         : 7 592 kb/s
    Encoded date                             : UTC 2021-03-04 13:59:42
    Writing application                      : mkvmerge v54.0.0 ('F Maj Pixie') 64-bit
    Writing library                          : libebml v1.4.2 + libmatroska v1.6.3
    
    Video
    ID                                       : 1
    Format                                   : AVC
    Format/Info                              : Advanced Video Codec
    Format profile                           : High@L5
    Format settings                          : CABAC / 12 Ref Frames
    Format settings, CABAC                   : Yes
    Format settings, Reference frames        : 12 frames
    Codec ID                                 : V_MPEG4/ISO/AVC
    Duration                                 : 24 min 0 s
    Bit rate                                 : 7 334 kb/s
    Width                                    : 1 920 pixels
    Height                                   : 1 080 pixels
    Display aspect ratio                     : 16:9
    Frame rate mode                          : Constant
    Frame rate                               : 23.976 (24000/1001) FPS
    Color space                              : YUV
    Chroma subsampling                       : 4:2:0
    Bit depth                                : 8 bits
    Scan type                                : Progressive
    Bits/(Pixel*Frame)                       : 0.148
    Stream size                              : 1.23 GiB (97%)
    Writing library                          : x264 core 157 r2969 d4099dd
    Encoding settings                        : cabac=1 / ref=12 / deblock=1:0:-1 / analyse=0x3:0x133 / me=umh / subme=10 / psy=1 / psy_rd=0.70:0.15 / mixed_ref=1 / me_range=24 / chroma_me=1 / trellis=2 / 8x8dct=1 / cqm=0 / deadzone=21,11 / fast_pskip=1 / chroma_qp_offset=-3 / threads=24 / lookahead_threads=6 / sliced_threads=0 / nr=0 / decimate=0 / interlaced=0 / bluray_compat=0 / constrained_intra=0 / bframes=16 / b_pyramid=2 / b_adapt=2 / b_bias=0 / direct=3 / weightb=1 / open_gop=0 / weightp=2 / keyint=192 / keyint_min=19 / scenecut=0 / intra_refresh=0 / rc_lookahead=80 / rc=crf / mbtree=1 / crf=15.0 / qcomp=0.60 / qpmin=0 / qpmax=69 / qpstep=4 / vbv_maxrate=20480 / vbv_bufsize=40960 / crf_max=0.0 / nal_hrd=none / filler=0 / ip_ratio=1.40 / aq=3:1.10
    Default                                  : Yes
    Forced                                   : No
    
    Audio
    ID                                       : 2
    Format                                   : AAC LC
    Format/Info                              : Advanced Audio Codec Low Complexity
    Codec ID                                 : A_AAC-2
    Duration                                 : 24 min 0 s
    Bit rate                                 : 256 kb/s
    Channel(s)                               : 2 channels
    Channel layout                           : L R
    Sampling rate                            : 48.0 kHz
    Frame rate                               : 46.875 FPS (1024 SPF)
    Compression mode                         : Lossy
    Delay relative to video                  : -83 ms
    Stream size                              : 43.9 MiB (3%)
    Default                                  : Yes
    Forced                                   : No
    
    




    Status: 720p [​IMG] 1080p [​IMG]
    Geschützter Bereich
    Registriere dich oder logge dich ein, um den Inhalt sehen zu können
     
    Zuletzt bearbeitet: 6. Mai 2021
    Arekusu, Hawkfeder, nicole832 und 85 anderen gefällt das.
  2. Azugo
    Azugo

    H͓̽u͓̽g͓̽o͓̽ ͓̽&͓̽ ͓̽A͓̽z͓̽u͓̽r͓̽a͓̽ Seelenverkäufer Uploader

    Registriert seit:
    25. März 2020
    Beiträge:
    408
    Zustimmungen:
    4.757
    っ◔◡◔)っ ♥ Episode 11 online. Viel Spaß. Anime abgeschlossen. ♥
     
    reloxx gefällt das.

Diese Seite empfehlen