Wir verwenden Cookies, um deinen Aufenthalt auf Animes.so möglichst angenehm gestalten zu können. Mehr erfahren

Dr. Stone: Stone Wars[Ger-Dub][720p|1080p][WebRip] - Crunchyroll

Dieses Thema im Forum "Download Archiv" wurde erstellt von supersonik, 26. Feb. 2021.

  1. supersonik
    supersonik

    Elite Nolife Uploader

    Registriert seit:
    7. Jan. 2018
    Beiträge:
    631
    Zustimmungen:
    27.361

    Dr. Stone: Stone Wars
    ドクターストーン STONE WARS
    [​IMG]

    Beschreibung:
    Nachdem vor 3000 Jahren die gesamte Menschheit durch ein bislang unbekanntes Phänomen in Steinstatuen verwandelt wurde, ist es Senkuu Ishigamis erklärtes Ziel, jeden einzelnen Menschen aus der Versteinerung zu befreien und den technischen Errungenschaften der damaligen Zeit neues Leben einzuhauchen. Ihm in den Weg stellt sich Tsukasa Shishiou, der die Wiedererweckung der in seinen Augen verdorbenen Erwachsenen ablehnt und damit beginnt, eine große Zahl junger talentierter Menschen aufzuwecken.

    Während der Schnee schmilzt und der Frühling näher rückt, beenden Senkuu und seine Verbündeten im Dorf Ishigami die Vorbereitungen für ihren Angriff auf das Tsukasa-Imperium. Mithilfe seiner neusten Erfindung, einem Mobilfunkgerät, plant das Königreich der Wissenschaft, Mitglieder von Tsukasas Armee auf seine Seite zu ziehen. Es ist jedoch ein Wettlauf gegen die Zeit; an jedem Tag, den Senkuu und seine Freunde für die Perfektion ihre Erfindungen aufwenden, wächst die Zahl von Tsukasas Anhängern.

    Senkuu und das Königreich der Wissenschaft müssen sich mit alten Freunden wiedervereinigen und neue Verbündete gewinnen, um Tsukasas Streitkräfte zu stoppen und ihr Ziel, die Menschheit und all ihre Schöpfungen wiederherzustellen, zu erreichen. Eine direkte Konfrontation dieser beiden Parteien, die jeweils ihre ideale Welt anstreben, steht unmittelbar bevor!
    by anisearch.de

    Folgen: 11/11
    Größe pro Folge: ~710 MB | ~1360 MB
    Releaser: Anime BluRay Junkies
    Art: Lizenzrelease
    Sprache: Deutsch
    Untertitel: nur forced Subs
    Jahr: 2021
    Genres: Abenteuer, Action, Drama, Komödie, SciFi, Genie, Slapstick
    Auflösung: 1280x720 | 1920x1080
    Format: MKV
    Quelle: WebRip
    Videocodec: x264
    Farbtiefe: 8bit
    Audiocodec: AAC
    Publisher: TMS Entertainment Co. Ltd. | Crunchyroll
    Hoster: DDownload | Rapidgator | Uploaded


    Mediainfo:
    Code:
    General Unique ID : 34104827727388986477831221094591207241 (0x19A859D45FFD1AC58AE445146E7F9749) Complete name : Dr.STONE.S02E01.German.AAC.720p.WebRip.x264-ABJ.mkv Format : Matroska Format version : Version 4 File size : 709 MiB Duration : 24 min 0 s Overall bit rate : 4 128 kb/s Encoded date : UTC 2021-02-25 21:25:17 Writing application : mkvmerge v53.0.0 ('Fool's Gold') 64-bit Writing library : libebml v1.4.1 + libmatroska v1.6.2 Attachments : AndikaNewBasic-Bold.ttf / AndikaNewBasic-BoldItalic.ttf / AndikaNewBasic-Italic.ttf / AndikaNewBasic-Regular.ttf Video ID : 1 Format : AVC Format/Info : Advanced Video Codec Format profile : High@L4 Format settings : CABAC / 6 Ref Frames Format settings, CABAC : Yes Format settings, Reference frames : 6 frames Codec ID : V_MPEG4/ISO/AVC Duration : 24 min 0 s Bit rate : 4 000 kb/s Width : 1 280 pixels Height : 720 pixels Display aspect ratio : 16:9 Frame rate mode : Constant Frame rate : 23.976 (24000/1001) FPS Color space : YUV Chroma subsampling : 4:2:0 Bit depth : 8 bits Scan type : Progressive Bits/(Pixel*Frame) : 0.181 Stream size : 686 MiB (97%) Writing library : x264 core 142 Encoding settings : cabac=1 / ref=6 / deblock=1:1:1 / analyse=0x3:0x113 / me=umh / subme=8 / psy=1 / psy_rd=0.40:0.00 / mixed_ref=1 / me_range=16 / chroma_me=1 / trellis=1 / 8x8dct=1 / cqm=0 / deadzone=21,11 / fast_pskip=1 / chroma_qp_offset=-2 / threads=10 / lookahead_threads=1 / sliced_threads=0 / nr=0 / decimate=1 / interlaced=0 / bluray_compat=0 / constrained_intra=0 / bframes=0 / weightp=2 / keyint=96 / keyint_min=48 / scenecut=40 / intra_refresh=0 / rc_lookahead=48 / rc=2pass / mbtree=1 / bitrate=4000 / ratetol=1.0 / qcomp=0.60 / qpmin=0 / qpmax=69 / qpstep=4 / cplxblur=20.0 / qblur=0.5 / vbv_maxrate=6000 / vbv_bufsize=9000 / nal_hrd=none / filler=0 / ip_ratio=1.40 / aq=1:0.60 Default : Yes Forced : No Audio ID : 2 Format : AAC LC Format/Info : Advanced Audio Codec Low Complexity Codec ID : A_AAC-2 Duration : 24 min 0 s Bit rate : 128 kb/s Channel(s) : 2 channels Channel layout : L R Sampling rate : 44.1 kHz Frame rate : 43.066 FPS (1024 SPF) Compression mode : Lossy Stream size : 22.0 MiB (3%) Language : German Default : Yes Forced : No Text ID : 3 Format : ASS Codec ID : S_TEXT/ASS Codec ID/Info : Advanced Sub Station Alpha Duration : 17 min 55 s Bit rate : 36 b/s Count of elements : 48 Compression mode : Lossless Stream size : 4.76 KiB (0%) Language : German Default : Yes Forced : No ​
    Code:
    General Unique ID : 11084847492968545245351079903212815964 (0x856DD2D3D9A9D488A874C16641B465C) Complete name : Dr.STONE.S02E01.German.AAC.1080p.WebRip.x264-ABJ.mkv Format : Matroska Format version : Version 4 File size : 1.36 GiB Duration : 24 min 0 s Overall bit rate : 8 105 kb/s Encoded date : UTC 2021-02-25 21:25:13 Writing application : mkvmerge v53.0.0 ('Fool's Gold') 64-bit Writing library : libebml v1.4.1 + libmatroska v1.6.2 Attachments : AndikaNewBasic-Bold.ttf / AndikaNewBasic-BoldItalic.ttf / AndikaNewBasic-Italic.ttf / AndikaNewBasic-Regular.ttf Video ID : 1 Format : AVC Format/Info : Advanced Video Codec Format profile : High@L4 Format settings : CABAC / 4 Ref Frames Format settings, CABAC : Yes Format settings, Reference frames : 4 frames Codec ID : V_MPEG4/ISO/AVC Duration : 24 min 0 s Bit rate : 8 000 kb/s Width : 1 920 pixels Height : 1 080 pixels Display aspect ratio : 16:9 Frame rate mode : Constant Frame rate : 23.976 (24000/1001) FPS Color space : YUV Chroma subsampling : 4:2:0 Bit depth : 8 bits Scan type : Progressive Bits/(Pixel*Frame) : 0.161 Stream size : 1.34 GiB (98%) Writing library : x264 core 142 Encoding settings : cabac=1 / ref=4 / deblock=1:1:1 / analyse=0x3:0x113 / me=umh / subme=8 / psy=1 / psy_rd=0.40:0.00 / mixed_ref=1 / me_range=16 / chroma_me=1 / trellis=1 / 8x8dct=1 / cqm=0 / deadzone=21,11 / fast_pskip=1 / chroma_qp_offset=-2 / threads=12 / lookahead_threads=2 / sliced_threads=0 / nr=0 / decimate=1 / interlaced=0 / bluray_compat=0 / constrained_intra=0 / bframes=0 / weightp=2 / keyint=96 / keyint_min=48 / scenecut=40 / intra_refresh=0 / rc_lookahead=48 / rc=2pass / mbtree=1 / bitrate=8000 / ratetol=1.0 / qcomp=0.60 / qpmin=0 / qpmax=69 / qpstep=4 / cplxblur=20.0 / qblur=0.5 / vbv_maxrate=12000 / vbv_bufsize=18000 / nal_hrd=none / filler=0 / ip_ratio=1.40 / aq=1:0.60 Default : Yes Forced : No Audio ID : 2 Format : AAC LC Format/Info : Advanced Audio Codec Low Complexity Codec ID : A_AAC-2 Duration : 24 min 0 s Bit rate : 128 kb/s Channel(s) : 2 channels Channel layout : L R Sampling rate : 44.1 kHz Frame rate : 43.066 FPS (1024 SPF) Compression mode : Lossy Stream size : 22.0 MiB (2%) Language : German Default : Yes Forced : No Text ID : 3 Format : ASS Codec ID : S_TEXT/ASS Codec ID/Info : Advanced Sub Station Alpha Duration : 17 min 55 s Bit rate : 36 b/s Count of elements : 48 Compression mode : Lossless Stream size : 4.76 KiB (0%) Language : German Default : Yes Forced : No ​
    720p: [​IMG]
    1080p: [​IMG]
    Geschützter Bereich
    Registriere dich oder logge dich ein, um den Inhalt sehen zu können
     
    Zuletzt bearbeitet: 17. Mai 2021
    FHansen, robbryjo, Moax und 47 anderen gefällt das.

Diese Seite empfehlen