• Wie Du sicherlich schon gesehen hast, hat sich Animes.so gewaltig verändert. Klicke hier um mehr Informationen darüber zu erhalten.

Dragon Quest: Dais Abenteuer | Dragon Quest: Dai no Daibouken (2020) [Laufend][Jap-Dub][Ger-Eng-Sub][720/1080p][Web-DL] - AoD/CR

Azugo

H͓̽u͓̽g͓̽o͓̽ ͓̽&͓̽ ͓̽A͓̽z͓̽u͓̽r͓̽a͓̽
Premium
Otaku Gott
Uploader
Beiträge
3.133
Punkte Reaktionen
22.143
Punkte
113

Dragon Quest: Dais Abenteuer | Dragon Quest: Dai no Daibouken (2020)



14837.webp



oie_bchbujbgr3vm-png.30595
anisearch.com schrieb:
»Dragon Quest: Dais Abenteuer« zeigt die Abenteuer des jungen Dai, der immer davon geträumt hat, ein Held zu werden. Er lebt in Frieden auf einer abgelegenen Insel mit verschiedensten Monstern; eines davon – sein Ziehgroßvater, der Monster-Magier Brass – hat ihn dort aufgezogen. Dieser Frieden herrschte jedoch nicht immer, denn einst verbreitete der finstere Dämon Hadlar Angst und Schrecken auf der Welt – bis ihm vor etwa 15 Jahren ein heldenhafter Schwertkämpfer ein Ende bereitete.

Mit Dais Frieden ist es zunächst aus ganz anderen Gründen vorbei: Nicht nur, dass eine Horde Abenteurer seinem Monsterfreund Gome zusetzt, es erscheint auch Leona, die Prinzessin des Königreichs Papnica, um von Dai bei einem wichtigen Ritual beschützt zu werden – eine Angelegenheit, die sich zu einer waschechten Verschwörung auswächst.

Es dauert nicht lange, bis der Heldentrainer Avan von Dais Taten hört, auf der Insel erscheint und damit beginnt, ihn auszubilden. Das hat auch seinen Grund: Hadlar hat keineswegs ein permanentes Ende gefunden und ist erneut auf Ärger aus – schlimmer noch: Er ist lediglich ein Untergebener vom dunklen König Vearn, der Hadlar wiederbelebt hat. Dais Wunsch, ein Held zu werden, könnte sich schneller erfüllen als erwartet …

Quelle: https://www.anisearch.de/anime/14837



oie_bchbujbgr3vm1-png.30596


Spieldauer: ~24min
Genre: Abenteuer
Nebengenres: Action, Fantasy, Komödie
Sprache:
Japanisch.png
Japanisch
Untertitel:
Deutsch.png
Deutsch,
Englisch.png
Englisch ab Folge 59
Größe pro Folge: ~684mb, ~3330mb
Episodenanzahl: 88/? ab Folge 59 ist von Crunchyroll
Format: MKV
Auflösung: 720p (16:9), 1080p (16:9)
Videocodec: H264 (AVC)
Audiocodec: AAC
Releasegruppe: Hugo
Hoster:
rapidgator-gif.30742
Rapidgator,
ddownload-gif.30720
ddownload


oie_bchbujbgr3vm2-png.30597

Code:
[color=Turquoise]Format                                   : Matroska
Format version                           : Version 4
File size                                : 684 MiB
Duration                                 : 24 min 2 s
Overall bit rate                         : 3 979 kb/s
Encoded date                             : UTC 2021-02-15 18:00:32
Writing application                      : mkvmerge v53.0.0 ('Fool's Gold') 64-bit
Writing library                          : libebml v1.4.1 + libmatroska v1.6.2

Video
ID                                       : 1
Format                                   : AVC
Format/Info                              : Advanced Video Codec
Format profile                           : [email protected]
Format settings                          : CABAC / 9 Ref Frames
Format settings, CABAC                   : Yes
Format settings, Reference frames        : 9 frames
Codec ID                                 : V_MPEG4/ISO/AVC
Duration                                 : 24 min 2 s
Bit rate                                 : 3 721 kb/s
Width                                    : 1 280 pixels
Height                                   : 720 pixels
Display aspect ratio                     : 16:9
Frame rate mode                          : Constant
Frame rate                               : 23.976 (24000/1001) FPS
Color space                              : YUV
Chroma subsampling                       : 4:2:0
Bit depth                                : 8 bits
Scan type                                : Progressive
Bits/(Pixel*Frame)                       : 0.168
Stream size                              : 640 MiB (94%)
Writing library                          : x264 core 157 r2969 d4099dd
Encoding settings                        : cabac=1 / ref=9 / deblock=1:0:-1 / analyse=0x3:0x133 / me=umh / subme=10 / psy=1 / psy_rd=0.60:0.10 / mixed_ref=1 / me_range=24 / chroma_me=1 / trellis=2 / 8x8dct=1 / cqm=0 / deadzone=21,11 / fast_pskip=1 / chroma_qp_offset=-3 / threads=12 / lookahead_threads=3 / sliced_threads=0 / nr=0 / decimate=0 / interlaced=0 / bluray_compat=0 / constrained_intra=0 / bframes=16 / b_pyramid=2 / b_adapt=2 / b_bias=0 / direct=3 / weightb=1 / open_gop=0 / weightp=2 / keyint=192 / keyint_min=19 / scenecut=0 / intra_refresh=0 / rc_lookahead=80 / rc=crf / mbtree=1 / crf=17.0 / qcomp=0.60 / qpmin=0 / qpmax=69 / qpstep=4 / vbv_maxrate=4096 / vbv_bufsize=10240 / crf_max=0.0 / nal_hrd=none / filler=0 / ip_ratio=1.40 / aq=3:0.90
Default                                  : Yes
Forced                                   : No

Audio
ID                                       : 2
Format                                   : AAC LC
Format/Info                              : Advanced Audio Codec Low Complexity
Codec ID                                 : A_AAC-2
Duration                                 : 24 min 2 s
Bit rate                                 : 256 kb/s
Channel(s)                               : 2 channels
Channel layout                           : L R
Sampling rate                            : 44.1 kHz
Frame rate                               : 43.066 FPS (1024 SPF)
Compression mode                         : Lossy
Delay relative to video                  : -83 ms
Stream size                              : 44.0 MiB (6%)
Default                                  : Yes
Forced                                   : No



[/color]
Code:
[color=Turquoise]Format                                   : Matroska
Format version                           : Version 4
File size                                : 3.33 GiB
Duration                                 : 24 min 2 s
Overall bit rate                         : 19.8 Mb/s
Encoded date                             : UTC 2021-02-15 17:59:43
Writing application                      : mkvmerge v53.0.0 ('Fool's Gold') 64-bit
Writing library                          : libebml v1.4.1 + libmatroska v1.6.2

Video
ID                                       : 1
Format                                   : AVC
Format/Info                              : Advanced Video Codec
Format profile                           : [email protected]
Format settings                          : CABAC / 12 Ref Frames
Format settings, CABAC                   : Yes
Format settings, Reference frames        : 12 frames
Codec ID                                 : V_MPEG4/ISO/AVC
Duration                                 : 24 min 2 s
Bit rate                                 : 19.6 Mb/s
Width                                    : 1 920 pixels
Height                                   : 1 080 pixels
Display aspect ratio                     : 16:9
Frame rate mode                          : Constant
Frame rate                               : 23.976 (24000/1001) FPS
Color space                              : YUV
Chroma subsampling                       : 4:2:0
Bit depth                                : 8 bits
Scan type                                : Progressive
Bits/(Pixel*Frame)                       : 0.394
Stream size                              : 3.29 GiB (99%)
Writing library                          : x264 core 157 r2969 d4099dd
Encoding settings                        : cabac=1 / ref=12 / deblock=1:-2:-1 / analyse=0x3:0x133 / me=umh / subme=10 / psy=1 / psy_rd=0.70:0.15 / mixed_ref=1 / me_range=24 / chroma_me=1 / trellis=2 / 8x8dct=1 / cqm=0 / deadzone=21,11 / fast_pskip=1 / chroma_qp_offset=-3 / threads=24 / lookahead_threads=6 / sliced_threads=0 / nr=0 / decimate=0 / interlaced=0 / bluray_compat=0 / constrained_intra=0 / bframes=16 / b_pyramid=2 / b_adapt=2 / b_bias=0 / direct=3 / weightb=1 / open_gop=0 / weightp=2 / keyint=192 / keyint_min=19 / scenecut=0 / intra_refresh=0 / rc_lookahead=80 / rc=crf / mbtree=1 / crf=15.0 / qcomp=0.60 / qpmin=0 / qpmax=69 / qpstep=4 / vbv_maxrate=20480 / vbv_bufsize=40960 / crf_max=0.0 / nal_hrd=none / filler=0 / ip_ratio=1.40 / aq=3:0.90
Default                                  : Yes
Forced                                   : No

Audio
ID                                       : 2
Format                                   : AAC LC
Format/Info                              : Advanced Audio Codec Low Complexity
Codec ID                                 : A_AAC-2
Duration                                 : 24 min 2 s
Bit rate                                 : 256 kb/s
Channel(s)                               : 2 channels
Channel layout                           : L R
Sampling rate                            : 44.1 kHz
Frame rate                               : 43.066 FPS (1024 SPF)
Compression mode                         : Lossy
Delay relative to video                  : -83 ms
Stream size                              : 44.0 MiB (1%)
Default                                  : Yes
Forced                                   : No


[/color]



oie_bchbujbgr3vm3-png.30598

cooltext396117611400625-png.30739

97733FE345.png

cooltext3961176114006251-png.30741

A98DE59D21.png

To view the content, you need to Sign In or Register.

 
Zuletzt bearbeitet:

Azugo

H͓̽u͓̽g͓̽o͓̽ ͓̽&͓̽ ͓̽A͓̽z͓̽u͓̽r͓̽a͓̽
Premium
Otaku Gott
Uploader
Beiträge
3.133
Punkte Reaktionen
22.143
Punkte
113
(っ◔◡◔)っ ♥ Episode 88 online. Viel Spaß ♥
 

Azugo

H͓̽u͓̽g͓̽o͓̽ ͓̽&͓̽ ͓̽A͓̽z͓̽u͓̽r͓̽a͓̽
Premium
Otaku Gott
Uploader
Beiträge
3.133
Punkte Reaktionen
22.143
Punkte
113
(っ◔◡◔)っ ♥ Episode 89 online. Viel Spaß ♥
 
Oben