Wir verwenden Cookies, um deinen Aufenthalt auf Animes.so möglichst angenehm gestalten zu können. Mehr erfahren

Dragonball Z [Ger-Eng-Jap-Dub][Eng-Sub][480p][DVDRip][Unzensiert] – Phantom1

Dieses Thema im Forum "Anime Serien (Deutsch)" wurde erstellt von Nanachi, 3. Mai 2015.

  1. Nanachi
    Nanachi

    Uploader Otaku König

    Registriert seit:
    2. Okt. 2017
    Beiträge:
    162
    Zustimmungen:
    1.367

    Dragon Ball Z
    ドラゴンボールZ
    Dragonball Z



    [​IMG]


    Kurzbeschreibung:


    Spieldauer: 25min
    Genre: Fighting-Shounen
    Nebengenres: Abenteuer, Action, Fantasy, Fighting-Shounen, Komödie, Scifi
    Jahr: 1989
    Sprache: [​IMG] Deutsch, [​IMG] Englisch, [​IMG] Japanisch
    Untertitel: [​IMG] Deutsch (Nur an Uncut-Stellen), [​IMG] Englisch
    Größe pro Folge: 162mb
    Episodenanzahl: 291/291
    Source: DVDRip
    Format: MKV
    Auflösung: 480p (16:9)
    Videocodec: H264 (AVC)
    Audiocodec: MPEG Audio
    Releasegruppe: Phantom1
    Hoster: [​IMG] DDownload, [​IMG] Uploaded


    Code:
    Format                                   : Matroska
    Format version                           : Version 1
    File size                                : 163 MiB
    Duration                                 : 19mn 53s
    Overall bit rate                         : 1 142 Kbps
    Movie name                               : DBZ Uncut (Released by Phantom1)
    Encoded date                             : UTC 2007-04-15 13:28:28
    Writing application                      : mkvmerge v1.6.5 ('Watcher Of The Skies') built on Mar 17 2006 17:24:57
    Writing library                          : libebml v0.7.6 + libmatroska v0.8.0
    
    Video
    ID                                       : 1
    Format                                   : AVC
    Format/Info                              : Advanced Video Codec
    Format profile                           : High@L5.1
    Format settings, CABAC                   : Yes
    Format settings, ReFrames                : 11 frames
    Codec ID                                 : V_MPEG4/ISO/AVC
    Duration                                 : 19mn 53s
    Bit rate                                 : 850 Kbps
    Width                                    : 720 pixels
    Height                                   : 480 pixels
    Display aspect ratio                     : 16:9
    Original display aspect ratio            : 3:2
    Frame rate mode                          : Constant
    Frame rate                               : 25.000 fps
    Color space                              : YUV
    Chroma subsampling                       : 4:2:0
    Bit depth                                : 8 bits
    Scan type                                : Progressive
    Bits/(Pixel*Frame)                       : 0.098
    Stream size                              : 118 MiB (73%)
    Writing library                          : x264 core 54 rev 600
    Encoding settings                        : cabac=1 / ref=8 / deblock=1:0:0 / analyse=0x3:0x133 / me=hex / subme=6 / brdo=1 / mixed_ref=1 / me_range=16 / chroma_me=1 / trellis=1 / 8x8dct=1 / cqm=0 / deadzone=21,11 / chroma_qp_offset=0 / slices=2 / nr=0 / decimate=1 / mbaff=0 / bframes=2 / b_pyramid=1 / b_adapt=1 / b_bias=0 / direct=3 / wpredb=1 / bime=1 / keyint=250 / keyint_min=25 / scenecut=40 / rc=2pass / bitrate=850 / ratetol=1.0 / rceq='blurCplx^(1-qComp)' / qcomp=0.60 / qpmin=10 / qpmax=51 / qpstep=4 / cplxblur=20.0 / qblur=0.5 / ip_ratio=1.40 / pb_ratio=1.50
    Language                                 : Japanese
    Default                                  : Yes
    Forced                                   : No
    
    Audio #1
    ID                                       : 2
    Format                                   : MPEG Audio
    Format version                           : Version 1
    Format profile                           : Layer 3
    Codec ID                                 : A_MPEG/L3
    Codec ID/Hint                            : MP3
    Duration                                 : 19mn 53s
    Bit rate mode                            : Constant
    Bit rate                                 : 80.0 Kbps
    Channel(s)                               : 1 channel
    Sampling rate                            : 48.0 KHz
    Compression mode                         : Lossy
    Stream size                              : 11.4 MiB (7%)
    Writing library                          : LAME3.92
    Language                                 : German
    Default                                  : Yes
    Forced                                   : No
    
    Audio #2
    ID                                       : 3
    Format                                   : MPEG Audio
    Format version                           : Version 1
    Format profile                           : Layer 3
    Mode                                     : Joint stereo
    Mode extension                           : MS Stereo
    Codec ID                                 : A_MPEG/L3
    Codec ID/Hint                            : MP3
    Duration                                 : 19mn 53s
    Bit rate mode                            : Constant
    Bit rate                                 : 128 Kbps
    Channel(s)                               : 2 channels
    Sampling rate                            : 48.0 KHz
    Compression mode                         : Lossy
    Stream size                              : 18.2 MiB (11%)
    Writing library                          : LAME3.97
    Encoding settings                        : -m j -V 4 -q 2 -lowpass 17 -b 128
    Language                                 : English
    Default                                  : No
    Forced                                   : No
    
    Audio #3
    ID                                       : 4
    Format                                   : MPEG Audio
    Format version                           : Version 1
    Format profile                           : Layer 3
    Codec ID                                 : A_MPEG/L3
    Codec ID/Hint                            : MP3
    Duration                                 : 19mn 53s
    Bit rate mode                            : Constant
    Bit rate                                 : 80.0 Kbps
    Channel(s)                               : 1 channel
    Sampling rate                            : 48.0 KHz
    Compression mode                         : Lossy
    Stream size                              : 11.4 MiB (7%)
    Writing library                          : LAME3.97
    Encoding settings                        : -m m -V 4 -q 2 -lowpass 20.3 -b 80
    Language                                 : Japanese
    Default                                  : No
    Forced                                   : No
    
    Text #1
    ID                                       : 5
    Format                                   : UTF-8
    Codec ID                                 : S_TEXT/UTF8
    Codec ID/Info                            : UTF-8 Plain Text
    Language                                 : German
    Default                                  : Yes
    Forced                                   : No
    
    Text #2
    ID                                       : 6
    Format                                   : UTF-8
    Codec ID                                 : S_TEXT/UTF8
    Codec ID/Info                            : UTF-8 Plain Text
    Language                                 : English
    Default                                  : No
    Forced                                   : No
    
    


    [​IMG]
    Status: [​IMG]
    Geschützter Bereich
    Registriere dich oder logge dich ein, um den Inhalt sehen zu können
     
    Zuletzt bearbeitet: 1. Aug. 2020
  2. Nanachi
    Nanachi

    Uploader Otaku König

    Registriert seit:
    2. Okt. 2017
    Beiträge:
    162
    Zustimmungen:
    1.367
    Wieder online. Share-Online mit DDownload ausgetauscht.
     

Diese Seite empfehlen