Wir verwenden Cookies, um deinen Aufenthalt auf Animes.so möglichst angenehm gestalten zu können. Mehr erfahren

Fairy Tail [Laufend][Ger-Dub][720p|1080p|1080p Plus][WebRip] - AoD

Dieses Thema im Forum "Anime Serien (Deutsch)" wurde erstellt von Fuuko, 24. Jan. 2019.

  1. Fuuko

    Fuuko Erfahrener Otaku Otaku König

    Registriert seit:
    19. Sep. 2018
    Beiträge:
    246
    Zustimmungen:
    10.319
    Fairy Tail

    [​IMG]

    [​IMG]
    Lucys Traum war es schon immer die talentierteste Stellarmagierin in ganz Fiore zu werden. Eines Tages trifft sie auf den Feuermagier Natsu Dragneel, Fairy Tails berühmtestes Mitglied und ihre Eintrittskarte zur wildesten Magiergilde, die ihr je begegnet ist. Zusammen mit ihren neuen Freunden Natsu, Happy, Elza und Gray begibt sie sich auf die verrücktesten Missionen, um wieder einmal die Welt zu retten. Ganz nebenbei finden sie dabei neue Mitglieder für die Gilde und neue Schlüssel für Lucys Sammlung von Stellargeistern.
    [​IMG]
    Episoden:
    183 / 203
    Spieldauer: 24 Min.
    Source: WebRip
    Format: MKV
    Video-Codec: x264
    Audio-Codec: AAC
    Sprache: Deutsch
    Untertitel: Überschriften
    Publisher: Kazé Deutschland
    Auflösung: 720p | 1080p | 1080p Plus
    Größe: 400MB | 650MB | 1200MB
    Code:
    Complete name               : Fairy.Tail.E001.GerDub.720p.WebHD.x264-Fuuko.mkv
    Format                      : Matroska
    Format version              : Version 4
    File size                   : 392 MiB
    Duration                    : 24 min 34 s
    Overall bit rate            : 2 232 kb/s
    Encoded date                : UTC 2018-04-28 19:26:08
    Writing application         : mkvmerge v17.0.0 ('Be Ur Friend') 64-bit
    Writing library             : libebml v1.3.5 + libmatroska v1.4.8
    
    Video
    ID                          : 1
    Format                      : AVC
    Format/Info                 : Advanced Video Codec
    Format profile              : High@L4
    Format settings             : CABAC / 9 Ref Frames
    Format settings, CABAC      : Yes
    Format settings, ReFrames   : 9 frames
    Codec ID                    : V_MPEG4/ISO/AVC
    Duration                    : 24 min 34 s
    Bit rate                    : 1 973 kb/s
    Width                       : 1 280 pixels
    Height                      : 720 pixels
    Display aspect ratio        : 16:9
    Frame rate mode             : Constant
    Frame rate                  : 23.976 (24000/1001) FPS
    Color space                 : YUV
    Chroma subsampling          : 4:2:0
    Bit depth                   : 8 bits
    Scan type                   : Progressive
    Bits/(Pixel*Frame)          : 0.089
    Stream size                 : 347 MiB (88%)
    Writing library             : x264 core 152 r2851 ba24899
    Encoding settings           : cabac=1 / ref=9 / deblock=1:0:-1 / analyse=0x3:0x133 / me=umh / subme=10 / psy=1 / psy_rd=0.60:0.10 / mixed_ref=1 / me_range=24 / chroma_me=1 / trellis=2 / 8x8dct=1 / cqm=0 / deadzone=21,11 / fast_pskip=1 / chroma_qp_offset=-3 / threads=22 / lookahead_threads=5 / sliced_threads=0 / nr=0 / decimate=0 / interlaced=0 / bluray_compat=0 / constrained_intra=0 / bframes=16 / b_pyramid=2 / b_adapt=2 / b_bias=0 / direct=3 / weightb=1 / open_gop=0 / weightp=2 / keyint=192 / keyint_min=19 / scenecut=0 / intra_refresh=0 / rc_lookahead=80 / rc=crf / mbtree=1 / crf=17.0 / qcomp=0.60 / qpmin=0 / qpmax=69 / qpstep=4 / vbv_maxrate=4096 / vbv_bufsize=10240 / crf_max=0.0 / nal_hrd=none / filler=0 / ip_ratio=1.40 / aq=3:1.10
    Default                     : Yes
    Forced                      : No
    
    Audio
    ID                          : 2
    Format                      : AAC LC
    Format/Info                 : Advanced Audio Codec Low Complexity
    Codec ID                    : A_AAC-2
    Duration                    : 24 min 34 s
    Bit rate                    : 256 kb/s
    Channel(s)                  : 2 channels
    Channel layout              : L R
    Sampling rate               : 48.0 kHz
    Frame rate                  : 46.875 FPS (1024 SPF)
    Compression mode            : Lossy
    Delay relative to video     : -83 ms
    Stream size                 : 45.0 MiB (11%)
    Default                     : Yes
    Forced                      : No
    Code:
    Complete name               : Fairy.Tail.E001.GerDub.1080p.WebHD.x264-Fuuko.mkv
    Format                      : Matroska
    Format version              : Version 4
    File size                   : 621 MiB
    Duration                    : 24 min 34 s
    Overall bit rate            : 3 529 kb/s
    Encoded date                : UTC 2018-06-11 17:15:25
    Writing application         : mkvmerge v17.0.0 ('Be Ur Friend') 64-bit
    Writing library             : libebml v1.3.5 + libmatroska v1.4.8
    
    Video
    ID                          : 1
    Format                      : AVC
    Format/Info                 : Advanced Video Codec
    Format profile              : High@L5
    Format settings             : CABAC / 12 Ref Frames
    Format settings, CABAC      : Yes
    Format settings, ReFrames   : 12 frames
    Codec ID                    : V_MPEG4/ISO/AVC
    Duration                    : 24 min 34 s
    Bit rate                    : 3 270 kb/s
    Width                       : 1 920 pixels
    Height                      : 1 080 pixels
    Display aspect ratio        : 16:9
    Frame rate mode             : Constant
    Frame rate                  : 23.976 (24000/1001) FPS
    Color space                 : YUV
    Chroma subsampling          : 4:2:0
    Bit depth                   : 8 bits
    Scan type                   : Progressive
    Bits/(Pixel*Frame)          : 0.066
    Stream size                 : 575 MiB (93%)
    Writing library             : x264 core 152 r2851 ba24899
    Encoding settings           : cabac=1 / ref=12 / deblock=1:0:-1 / analyse=0x3:0x133 / me=umh / subme=10 / psy=1 / psy_rd=0.60:0.10 / mixed_ref=1 / me_range=24 / chroma_me=1 / trellis=2 / 8x8dct=1 / cqm=0 / deadzone=21,11 / fast_pskip=1 / chroma_qp_offset=-3 / threads=24 / lookahead_threads=6 / sliced_threads=0 / nr=0 / decimate=0 / interlaced=0 / bluray_compat=0 / constrained_intra=0 / bframes=16 / b_pyramid=2 / b_adapt=2 / b_bias=0 / direct=3 / weightb=1 / open_gop=0 / weightp=2 / keyint=192 / keyint_min=19 / scenecut=0 / intra_refresh=0 / rc_lookahead=80 / rc=crf / mbtree=1 / crf=18.0 / qcomp=0.60 / qpmin=0 / qpmax=69 / qpstep=4 / vbv_maxrate=6144 / vbv_bufsize=15360 / crf_max=0.0 / nal_hrd=none / filler=0 / ip_ratio=1.40 / aq=3:1.10
    Default                     : Yes
    Forced                      : No
    
    Audio
    ID                          : 2
    Format                      : AAC LC
    Format/Info                 : Advanced Audio Codec Low Complexity
    Codec ID                    : A_AAC-2
    Duration                    : 24 min 34 s
    Bit rate                    : 256 kb/s
    Channel(s)                  : 2 channels
    Channel layout              : L R
    Sampling rate               : 48.0 kHz
    Frame rate                  : 46.875 FPS (1024 SPF)
    Compression mode            : Lossy
    Delay relative to video     : -83 ms
    Stream size                 : 45.0 MiB (7%)
    Default                     : Yes
    Forced                      : No
    Code:
    Complete name               : Fairy.Tail.E001.GerDub.1080p.Plus.WebHD.x264-Fuuko.mkv
    Format                      : Matroska
    Format version              : Version 4
    File size                   : 1.20 GiB
    Duration                    : 24 min 34 s
    Overall bit rate            : 6 981 kb/s
    Encoded date                : UTC 2018-04-29 11:41:27
    Writing application         : mkvmerge v17.0.0 ('Be Ur Friend') 64-bit
    Writing library             : libebml v1.3.5 + libmatroska v1.4.8
    
    Video
    ID                          : 1
    Format                      : AVC
    Format/Info                 : Advanced Video Codec
    Format profile              : High@L5
    Format settings             : CABAC / 12 Ref Frames
    Format settings, CABAC      : Yes
    Format settings, ReFrames   : 12 frames
    Codec ID                    : V_MPEG4/ISO/AVC
    Duration                    : 24 min 34 s
    Bit rate                    : 6 723 kb/s
    Width                       : 1 920 pixels
    Height                      : 1 080 pixels
    Display aspect ratio        : 16:9
    Frame rate mode             : Constant
    Frame rate                  : 23.976 (24000/1001) FPS
    Color space                 : YUV
    Chroma subsampling          : 4:2:0
    Bit depth                   : 8 bits
    Scan type                   : Progressive
    Bits/(Pixel*Frame)          : 0.135
    Stream size                 : 1.15 GiB (96%)
    Writing library             : x264 core 152 r2851 ba24899
    Encoding settings           : cabac=1 / ref=12 / deblock=1:0:-1 / analyse=0x3:0x133 / me=umh / subme=10 / psy=1 / psy_rd=0.70:0.15 / mixed_ref=1 / me_range=24 / chroma_me=1 / trellis=2 / 8x8dct=1 / cqm=0 / deadzone=21,11 / fast_pskip=1 / chroma_qp_offset=-3 / threads=24 / lookahead_threads=6 / sliced_threads=0 / nr=0 / decimate=0 / interlaced=0 / bluray_compat=0 / constrained_intra=0 / bframes=16 / b_pyramid=2 / b_adapt=2 / b_bias=0 / direct=3 / weightb=1 / open_gop=0 / weightp=2 / keyint=192 / keyint_min=19 / scenecut=0 / intra_refresh=0 / rc_lookahead=80 / rc=crf / mbtree=1 / crf=15.0 / qcomp=0.60 / qpmin=0 / qpmax=69 / qpstep=4 / vbv_maxrate=20480 / vbv_bufsize=40960 / crf_max=0.0 / nal_hrd=none / filler=0 / ip_ratio=1.40 / aq=3:1.10
    Default                     : Yes
    Forced                      : No
    
    Audio
    ID                          : 2
    Format                      : AAC LC
    Format/Info                 : Advanced Audio Codec Low Complexity
    Codec ID                    : A_AAC-2
    Duration                    : 24 min 34 s
    Bit rate                    : 256 kb/s
    Channel(s)                  : 2 channels
    Channel layout              : L R
    Sampling rate               : 48.0 kHz
    Frame rate                  : 46.875 FPS (1024 SPF)
    Compression mode            : Lossy
    Delay relative to video     : -83 ms
    Stream size                 : 45.0 MiB (4%)
    Default                     : Yes
    Forced                      : No
    [​IMG] [​IMG]
    720p [​IMG]
    1080p [​IMG]
    1080p Plus [​IMG]

    Fairy Tail [Ger-Jap-Dub][Ger-Sub][404p|720p|1080p][BluRay] - Fuuko
    Geschützter Bereich
    Registriere dich oder logge dich ein, um den Inhalt sehen zu können
     
    Zuletzt bearbeitet: 16. Feb. 2020
  2. supersonik

    supersonik Zero Hero Premium

    Registriert seit:
    7. Jan. 2018
    Beiträge:
    471
    Zustimmungen:
    7.193

    Fairy Tail
    フェアリーテイル
    [​IMG]

    Beschreibung:
    Lucys Traum war es schon immer die talentierteste Stellarmagierin in ganz Fiore zu werden. Eines Tages trifft sie auf den Feuermagier Natsu Dragneel, Fairy Tails berühmtestes Mitglied und ihre Eintrittskarte zur wildesten Magiergilde, die ihr je begegnet ist. Zusammen mit ihren neuen Freunden Natsu, Happy, Elza und Gray begibt sie sich auf die verrücktesten Missionen, um wieder einmal die Welt zu retten. Ganz nebenbei finden sie dabei neue Mitglieder für die Gilde und neue Schlüssel für Lucys Sammlung von Stellargeistern.
    by anisearch.de

    Folgen: 187/203
    Größe pro Folge: ~390 MB | ~1340 MB
    Releaser: snk
    Art: Lizenzrelease
    Sprache: Deutsch
    Untertitel: nur forced Subs
    Jahr: 2009
    Genres: Fighting-Shounen, Abenteuer, Action, Ecchi, Fantasy, Komödie, Alternative Welt, Magie, Martial Arts
    Auflösung: 1280x720 | 1920x1080
    Format: MKV
    Quelle: Webrip
    Videocodec: x264
    Farbtiefe: 8bit
    Audiocodec: AAC
    Publisher: Satelight Inc. | A-1 Pictures Inc. | Anime-on-Demand
    Hoster: Uploaded


    Mediainfo:

    Code:
    Allgemein UniqueID/String : 49065571906648083231852224976473190922 (0x24E9AF7782EDC999DEB8B3806082720A) Vollständiger Name : Fairy.Tail.2009.Ep01.Ger.Dub.Web.720p.AAC-snk.mkv Format : Matroska Format-Version : Version 4 Dateigröße : 393 MiB Dauer : 24 min 34s Gesamte Bitrate : 2 232 kb/s Kodierungs-Datum : UTC 2020-02-19 08:42:49 Kodierendes Programm : mkvmerge v19.0.0 ('Brave Captain') 64-bit verwendete Encoder-Bibliothek : libebml v1.3.5 + libmatroska v1.4.8 Video ID : 1 Format : AVC Format/Info : Advanced Video Codec Format-Profil : High@L4 Format-Einstellungen : CABAC / 9 Ref Frames Format-Einstellungen für CABAC : Ja Format-Einstellungen für RefFrames : 9 frames Codec-ID : V_MPEG4/ISO/AVC Dauer : 24 min 34s Bitrate : 1 974 kb/s Breite : 1 280 Pixel Höhe : 720 Pixel Bildseitenverhältnis : 16:9 Modus der Bildwiederholungsrate : konstant Bildwiederholungsrate : 23,976 (23976/1000) FPS ColorSpace : YUV ChromaSubsampling/String : 4:2:0 BitDepth/String : 8 bits Scantyp : progressiv Bits/(Pixel*Frame) : 0.089 Stream-Größe : 347 MiB (88%) verwendete Encoder-Bibliothek : x264 core 152 r2851 ba24899 Kodierungseinstellungen : cabac=1 / ref=9 / deblock=1:0:-1 / analyse=0x3:0x133 / me=umh / subme=10 / psy=1 / psy_rd=0.60:0.10 / mixed_ref=1 / me_range=24 / chroma_me=1 / trellis=2 / 8x8dct=1 / cqm=0 / deadzone=21,11 / fast_pskip=1 / chroma_qp_offset=-3 / threads=22 / lookahead_threads=5 / sliced_threads=0 / nr=0 / decimate=0 / interlaced=0 / bluray_compat=0 / constrained_intra=0 / bframes=16 / b_pyramid=2 / b_adapt=2 / b_bias=0 / direct=3 / weightb=1 / open_gop=0 / weightp=2 / keyint=192 / keyint_min=19 / scenecut=0 / intra_refresh=0 / rc_lookahead=80 / rc=crf / mbtree=1 / crf=17.0 / qcomp=0.60 / qpmin=0 / qpmax=69 / qpstep=4 / vbv_maxrate=4096 / vbv_bufsize=10240 / crf_max=0.0 / nal_hrd=none / filler=0 / ip_ratio=1.40 / aq=3:1.10 Default : Ja Forced : Nein Audio ID : 2 Format : AAC LC Format/Info : Advanced Audio Codec Low Complexity Codec-ID : A_AAC-2 Dauer : 24 min 34s Bitrate : 256 kb/s Kanäle : 2 Kanäle ChannelLayout : L R Samplingrate : 48,0 kHz Bildwiederholungsrate : 46,875 FPS (1024 SPF) Stream-Größe : 45,0 MiB (11%) Sprache : Deutsch Default : Ja Forced : Nein ​
    Code:
    Allgemein UniqueID/String : 70044468279855014252799656004633426739 (0x34B212EA7291965F46EA90EBC4DEFB33) Vollständiger Name : Fairy.Tail.2009.Ep01.Ger.Dub.Web.1080pPlus.AAC-snk.mkv Format : Matroska Format-Version : Version 4 Dateigröße : 1,20 GiB Dauer : 24 min 34s Gesamte Bitrate : 6 982 kb/s Kodierungs-Datum : UTC 2020-02-19 12:35:06 Kodierendes Programm : mkvmerge v19.0.0 ('Brave Captain') 64-bit verwendete Encoder-Bibliothek : libebml v1.3.5 + libmatroska v1.4.8 Video ID : 1 Format : AVC Format/Info : Advanced Video Codec Format-Profil : High@L5 Format-Einstellungen : CABAC / 12 Ref Frames Format-Einstellungen für CABAC : Ja Format-Einstellungen für RefFrames : 12 frames Codec-ID : V_MPEG4/ISO/AVC Dauer : 24 min 34s Bitrate : 6 724 kb/s Breite : 1 920 Pixel Höhe : 1 080 Pixel Bildseitenverhältnis : 16:9 Modus der Bildwiederholungsrate : konstant Bildwiederholungsrate : 23,976 (23976/1000) FPS ColorSpace : YUV ChromaSubsampling/String : 4:2:0 BitDepth/String : 8 bits Scantyp : progressiv Bits/(Pixel*Frame) : 0.135 Stream-Größe : 1,15 GiB (96%) verwendete Encoder-Bibliothek : x264 core 152 r2851 ba24899 Kodierungseinstellungen : cabac=1 / ref=12 / deblock=1:0:-1 / analyse=0x3:0x133 / me=umh / subme=10 / psy=1 / psy_rd=0.70:0.15 / mixed_ref=1 / me_range=24 / chroma_me=1 / trellis=2 / 8x8dct=1 / cqm=0 / deadzone=21,11 / fast_pskip=1 / chroma_qp_offset=-3 / threads=24 / lookahead_threads=6 / sliced_threads=0 / nr=0 / decimate=0 / interlaced=0 / bluray_compat=0 / constrained_intra=0 / bframes=16 / b_pyramid=2 / b_adapt=2 / b_bias=0 / direct=3 / weightb=1 / open_gop=0 / weightp=2 / keyint=192 / keyint_min=19 / scenecut=0 / intra_refresh=0 / rc_lookahead=80 / rc=crf / mbtree=1 / crf=15.0 / qcomp=0.60 / qpmin=0 / qpmax=69 / qpstep=4 / vbv_maxrate=20480 / vbv_bufsize=40960 / crf_max=0.0 / nal_hrd=none / filler=0 / ip_ratio=1.40 / aq=3:1.10 Default : Ja Forced : Nein Audio ID : 2 Format : AAC LC Format/Info : Advanced Audio Codec Low Complexity Codec-ID : A_AAC-2 Dauer : 24 min 34s Bitrate : 256 kb/s Kanäle : 2 Kanäle ChannelLayout : L R Samplingrate : 48,0 kHz Bildwiederholungsrate : 46,875 FPS (1024 SPF) Stream-Größe : 45,0 MiB (4%) Sprache : Deutsch Default : Ja Forced : Nein ​
    720p: [​IMG]
    1080p: [​IMG]
    Geschützter Bereich
    Registriere dich oder logge dich ein, um den Inhalt sehen zu können

     
    Zuletzt bearbeitet: 24. Feb. 2020 um 18:36 Uhr
    1Ranger, wire1257, flippi86 und 16 anderen gefällt das.
  3. supersonik

    supersonik Zero Hero Premium

    Registriert seit:
    7. Jan. 2018
    Beiträge:
    471
    Zustimmungen:
    7.193
    Episode 186 + 187 online
    viel spaß :>