1. Die erweiterte Suche funktioniert wieder. Die LiveSearch wird gegen Ende der Woche wieder funktionieren.

Wir verwenden Cookies, um deinen Aufenthalt auf Animes.so möglichst angenehm gestalten zu können. Mehr erfahren

Fate/Extra: Last Encore [Jap-Dub][Ger-Eng-Sub][720p][WebRip] - Netflix

Dieses Thema im Forum "Serien (GerSub)" wurde erstellt von Ta@, 12. Juni 2018.

  1. Ta@

    Ta@ Erfahrener Otaku Otaku König

    Registriert seit:
    7. Juli 2016
    Beiträge:
    338
    Zustimmungen:
    11.516
    Fate/Extra: Last Encore
    Fate/Extra: Last Encore - Oblitus Copernican Theory

    [​IMG]
    [​IMG]
    Leere … nichts als Stille und Dunkelheit – das ist alles, was Hakuno Kishinami in seinem Gedächtnis noch vorfinden kann, als er in einer merkwürdigen, virtuellen Welt zu sich kommt. Ohne eine einzige Erinnerung an die Vergangenheit findet er sich nun in einen Kampf ums nackte Überleben verwickelt, dessen Gewinner ein Preis von unschätzbarem Wert winkt: der Heilige Gral. Der Gral, so heißt es, könne seinem Besitzer jeden Wunsch erfüllen und so muss Hakuno sich gemeinsam mit seinem geheimnisvollen Servant in einem Kampf um Leben und Tod Freund und Feind zugleich erwehren. Doch mehr als nur der Gral lockt Hakuno eine Antwort auf die wichtigste aller Fragen: „Wer bin ich?“encore">aniSearch.de</a>

    Folgen: 10/10
    Größe pro Folge: ~450 MB
    Folgendauer: ~24 Min
    Releaser: Ta@
    Art: Lizenzrelease
    Sprache: Japanisch
    Untertitel: Deutsch, Englisch
    Auflösung: 1280x720
    Format: MKV
    Quelle: WebRip
    Videocodec: x264
    Farbtiefe: 8Bit
    Audiocodec: AC3
    Hoster: Share-Online

    [​IMG]
    Code:
    General Complete name : [Ta@]Fate_Extra_-_Last_Encore_01_[Web,720p,AC3].mkv Format : Matroska Format version : Version 4 / Version 2 File size : 394 MiB Duration : 23 min 42 s Overall bit rate : 2 326 kb/s Encoded date : UTC 2018-06-12 18:02:46 Writing application : mkvmerge v10.0.0 ('To Drown In You') 64bit Writing library : libebml v1.3.4 + libmatroska v1.4.5 Attachments : lt.ttf / ltf.ttf / lt.ttf / ltf.ttf Video ID : 1 Format : AVC Format/Info : Advanced Video Codec Format profile : High 10@L5.1 Format settings : CABAC / 16 Ref Frames Format settings, CABAC : Yes Format settings, RefFrames : 16 frames Codec ID : V_MPEG4/ISO/AVC Duration : 23 min 41 s Bit rate : 2 195 kb/s Width : 1 280 pixels Height : 720 pixels Display aspect ratio : 16:9 Frame rate mode : Constant Frame rate : 23.976 (24000/1001) FPS Color space : YUV Chroma subsampling : 4:2:0 Bit depth : 10 bits Scan type : Progressive Bits/(Pixel*Frame) : 0.099 Stream size : 372 MiB (94%) Writing library : x264 core 150 r2833kMod df79067 Encoding settings : cabac=1 / ref=16 / deblock=1:-2:-1 / analyse=0x3:0x133 / me=umh / subme=11 / psy=1 / fade_compensate=0.30 / psy_rd=0.40:0.10 / mixed_ref=1 / me_range=16 / chroma_me=1 / trellis=2 / 8x8dct=1 / cqm=0 / deadzone=21,11 / fast_pskip=0 / chroma_qp_offset=-3 / threads=12 / lookahead_threads=3 / sliced_threads=0 / nr=0 / decimate=0 / interlaced=0 / bluray_compat=0 / constrained_intra=0 / bframes=16 / b_pyramid=2 / b_adapt=2 / b_bias=0 / direct=3 / weightb=1 / open_gop=0 / weightp=2 / keyint=infinite / keyint_min=24 / scenecut=40 / intra_refresh=0 / rc_lookahead=40 / rc=crf / mbtree=1 / crf=16.0000 / qcomp=0.70 / qpmin=15 / qpmax=81 / qpstep=4 / ip_ratio=1.40 / aq=1:0.80 Default : Yes Forced : No Color range : Limited Matrix coefficients : BT.709 Audio ID : 2 Format : E-AC-3 Format/Info : Enhanced Audio Coding 3 Codec ID : A_EAC3 Duration : 23 min 42 s Bit rate mode : Constant Bit rate : 128 kb/s Channel(s) : 2 channels Channel positions : Front: L R Sampling rate : 48.0 kHz Frame rate : 187.500 FPS (256 SPF) Compression mode : Lossy Stream size : 21.7 MiB (6%) Language : Japanese Service kind : Complete Main Default : Yes Forced : No Text #1 ID : 3 Format : ASS Codec ID : S_TEXT/ASS Codec ID/Info : Advanced Sub Station Alpha Duration : 21 min 56 s Bit rate : 66 b/s Count of elements : 188 Compression mode : Lossless Stream size : 10.7 KiB (0%) Language : German Default : Yes Forced : No Text #2 ID : 4 Format : ASS Codec ID : S_TEXT/ASS Codec ID/Info : Advanced Sub Station Alpha Duration : 21 min 44 s Bit rate : 67 b/s Count of elements : 187 Compression mode : Lossless Stream size : 10.8 KiB (0%) Language : English Default : No Forced : No ​

    720p:[​IMG]

    Geschützter Bereich
    Registriere dich oder logge dich ein, um den Inhalt sehen zu können
     
    Lautrerbomber, 420, TobsSs und 32 anderen gefällt das.