Welcome to our Community
Wanting to join the rest of our members? Feel free to sign up today.
Sign up

Fate/Kaleid Liner Prisma Illya 2wei Herz! + Specials [Ger-Jap-Dub][Ger-Sub][720p|1080p][E-AC-3|DTS-HD][8bits|10bits][x264|x265|AV1][BluRay] - AO

Azugo

H͓̽u͓̽g͓̽o͓̽ ͓̽&͓̽ ͓̽A͓̽z͓̽u͓̽r͓̽a͓̽
Otaku Gott
Uploader
25 März 2020
3.189
24.363
113



Fate/Kaleid Liner Prisma Illya 2wei Herz!




fate-s3.png



SRXGgee.png

anisearch.com schrieb:
Der Sommer ist da und das heißt für Illya, Miyu und Co. vor allem eins: Strand, Sonne, Festivals und eine Riesenmenge Spaß. Doch während alle damit beschäftigt sind, die warme Jahreszeit zu genießen, hängt weiterhin eine düstere Tatsache in der Luft, nämlich die mysteriöse achte Karte, welche auf einmal entdeckt wurde. Was hat es mit dem Auftauchen dieser Karte auf sich und was für Konsequenzen wird sie mit sich bringen? Vieles ist noch ungewiss, doch bis die Vorbereitungen getroffen sind, um die tief unterirdisch gelegene Karte zu erreichen, bleibt wohl nichts anderes als zu warten und die Sommerferien bestmöglich auszukosten.
Quelle: https://www.anisearch.de/anime/9844


t3RZ5BD.png


Spieldauer: ~24min
Genre: Actiondrama
Nebengenres: Abenteuer, Fantasy, Ecchi, Magical Girl
Jahr: 2013
Sprache:
Deutsch.png
Deutsch,
Japanisch.png
Japanisch
Untertitel:
Deutsch.png
Deutsch,
Deutsch.png
Deutsch(Forced)
Größe pro Folge: ~816mb, ~1800mb ~1800mb, ~1260mb
Episodenanzahl: 10/10
Format: MKV
Auflösung: 720p (16:9), 1080p (16:9)
Videocodec: H264 (AVC), H265 (HEVC), AV1 (AOM)
Audiocodec: E-AC-3, DTS-HD
Releasegruppe: Anime Otakus
Hoster:
rapidgator-gif.30742
Rapidgator,
ddownload-gif.30720
ddownload


QTQOKDS.png

Rich (BBCode):
Format                                   : Matroska
Format version                           : Version 4
File size                                : 816 MiB
Duration                                 : 23 min 38 s
Overall bit rate                         : 4 828 kb/s
Writing application                      : no_variable_data
Writing library                          : no_variable_data
Release by                               : Anime Otakus
Version                                  : 1.2

Video
ID                                       : 1
Format                                   : AVC
Format/Info                              : Advanced Video Codec
Format profile                           : [email protected]
Format settings                          : CABAC / 8 Ref Frames
Format settings, CABAC                   : Yes
Format settings, Reference frames        : 8 frames
Codec ID                                 : V_MPEG4/ISO/AVC
Duration                                 : 23 min 38 s
Bit rate                                 : 3 452 kb/s
Width                                    : 1 280 pixels
Height                                   : 720 pixels
Display aspect ratio                     : 16:9
Frame rate mode                          : Constant
Frame rate                               : 23.976 (24000/1001) FPS
Color space                              : YUV
Chroma subsampling                       : 4:2:0
Bit depth                                : 8 bits
Scan type                                : Progressive
Bits/(Pixel*Frame)                       : 0.156
Stream size                              : 583 MiB (71%)
Language                                 : English
Default                                  : No
Forced                                   : No
Color range                              : Limited
Color primaries                          : BT.709
Transfer characteristics                 : BT.709
Matrix coefficients                      : BT.709

Audio #1
ID                                       : 3
Format                                   : E-AC-3
Format/Info                              : Enhanced AC-3
Commercial name                          : Dolby Digital Plus
Codec ID                                 : A_EAC3
Duration                                 : 23 min 38 s
Bit rate mode                            : Constant
Bit rate                                 : 640 kb/s
Channel(s)                               : 2 channels
Channel layout                           : L R
Sampling rate                            : 48.0 kHz
Frame rate                               : 31.250 FPS (1536 SPF)
Bit depth                                : 32 bits
Compression mode                         : Lossy
Stream size                              : 108 MiB (13%)
Title                                    : Stereo
Language                                 : German
Service kind                             : Complete Main
Default                                  : Yes
Forced                                   : No

Audio #2
ID                                       : 4
Format                                   : E-AC-3
Format/Info                              : Enhanced AC-3
Commercial name                          : Dolby Digital Plus
Codec ID                                 : A_EAC3
Duration                                 : 23 min 38 s
Bit rate mode                            : Constant
Bit rate                                 : 640 kb/s
Channel(s)                               : 2 channels
Channel layout                           : L R
Sampling rate                            : 48.0 kHz
Frame rate                               : 31.250 FPS (1536 SPF)
Bit depth                                : 32 bits
Compression mode                         : Lossy
Stream size                              : 108 MiB (13%)
Title                                    : Stereo
Language                                 : Japanese
Service kind                             : Complete Main
Default                                  : No
Forced                                   : No

Text
ID                                       : 2
Format                                   : PGS
Muxing mode                              : zlib
Codec ID                                 : S_HDMV/PGS
Codec ID/Info                            : Picture based subtitle format used on BDs/HD-DVDs
Title                                    : German Full
Language                                 : German
Default                                  : No
Forced                                   : No

Menu
00:00:00.000                             : :Chapter 01
00:01:15.617                             : :Chapter 02
00:02:45.832                             : :Chapter 03
00:09:56.637                             : :Chapter 04
00:21:27.035                             : :Chapter 05
00:22:57.000                             : :Chapter 06

Rich (BBCode):
Format                                   : Matroska
Format version                           : Version 4
File size                                : 1.80 GiB
Duration                                 : 23 min 38 s
Overall bit rate mode                    : Variable
Overall bit rate                         : 10.9 Mb/s
Writing application                      : no_variable_data
Writing library                          : no_variable_data
Release by                               : Anime Otakus
Version                                  : 1.2

Video
ID                                       : 1
Format                                   : AVC
Format/Info                              : Advanced Video Codec
Format profile                           : [email protected]
Format settings                          : CABAC / 12 Ref Frames
Format settings, CABAC                   : Yes
Format settings, Reference frames        : 12 frames
Codec ID                                 : V_MPEG4/ISO/AVC
Duration                                 : 23 min 38 s
Bit rate                                 : 8 726 kb/s
Width                                    : 1 920 pixels
Height                                   : 1 080 pixels
Display aspect ratio                     : 16:9
Frame rate mode                          : Constant
Frame rate                               : 23.976 (24000/1001) FPS
Color space                              : YUV
Chroma subsampling                       : 4:2:0
Bit depth                                : 8 bits
Scan type                                : Progressive
Bits/(Pixel*Frame)                       : 0.176
Stream size                              : 1.44 GiB (80%)
Language                                 : English
Default                                  : No
Forced                                   : No
Color range                              : Limited
Color primaries                          : BT.709
Transfer characteristics                 : BT.709
Matrix coefficients                      : BT.709

Audio #1
ID                                       : 3
Format                                   : DTS XLL
Format/Info                              : Digital Theater Systems
Commercial name                          : DTS-HD Master Audio
Codec ID                                 : A_DTS
Duration                                 : 23 min 38 s
Bit rate mode                            : Variable
Bit rate                                 : 1 077 kb/s
Channel(s)                               : 2 channels
Channel layout                           : L R
Sampling rate                            : 48.0 kHz
Frame rate                               : 93.750 FPS (512 SPF)
Bit depth                                : 16 bits
Compression mode                         : Lossless
Stream size                              : 182 MiB (10%)
Title                                    : Stereo
Language                                 : German
Default                                  : Yes
Forced                                   : No

Audio #2
ID                                       : 4
Format                                   : DTS XLL
Format/Info                              : Digital Theater Systems
Commercial name                          : DTS-HD Master Audio
Codec ID                                 : A_DTS
Duration                                 : 23 min 38 s
Bit rate mode                            : Variable
Bit rate                                 : 1 096 kb/s
Channel(s)                               : 2 channels
Channel layout                           : L R
Sampling rate                            : 48.0 kHz
Frame rate                               : 93.750 FPS (512 SPF)
Bit depth                                : 16 bits
Compression mode                         : Lossless
Stream size                              : 185 MiB (10%)
Title                                    : Stereo
Language                                 : Japanese
Default                                  : No
Forced                                   : No

Text
ID                                       : 2
Format                                   : PGS
Muxing mode                              : zlib
Codec ID                                 : S_HDMV/PGS
Codec ID/Info                            : Picture based subtitle format used on BDs/HD-DVDs
Duration                                 : 23 min 14 s
Bit rate                                 : 54.4 kb/s
Count of elements                        : 547
Stream size                              : 9.03 MiB (0%)
Title                                    : German Full
Language                                 : German
Default                                  : No
Forced                                   : No

Menu
00:00:00.000                             : :Chapter 01
00:01:15.617                             : :Chapter 02
00:02:45.832                             : :Chapter 03
00:09:56.637                             : :Chapter 04
00:21:27.035                             : :Chapter 05
00:22:57.000                             : :Chapter 06

Rich (BBCode):
Format                                   : Matroska
Format version                           : Version 4
File size                                : 1.80 GiB
Duration                                 : 23 min 38 s
Overall bit rate mode                    : Variable
Overall bit rate                         : 10.9 Mb/s
Writing application                      : no_variable_data
Writing library                          : no_variable_data
Release by                               : Anime Otakus
Version                                  : 1.2

Video
ID                                       : 1
Format                                   : HEVC
Format/Info                              : High Efficiency Video Coding
Format profile                           : Main [email protected]@Main
Codec ID                                 : V_MPEGH/ISO/HEVC
Duration                                 : 23 min 38 s
Width                                    : 1 920 pixels
Height                                   : 1 080 pixels
Display aspect ratio                     : 16:9
Frame rate mode                          : Constant
Frame rate                               : 23.976 (24000/1001) FPS
Color space                              : YUV
Chroma subsampling                       : 4:2:0 (Type 0)
Bit depth                                : 10 bits
Language                                 : English
Default                                  : No
Forced                                   : No
Color range                              : Limited
Color primaries                          : BT.709
Transfer characteristics                 : BT.709
Matrix coefficients                      : BT.709

Audio #1
ID                                       : 3
Format                                   : DTS XLL
Format/Info                              : Digital Theater Systems
Commercial name                          : DTS-HD Master Audio
Codec ID                                 : A_DTS
Duration                                 : 23 min 38 s
Bit rate mode                            : Variable
Channel(s)                               : 2 channels
Channel layout                           : L R
Sampling rate                            : 48.0 kHz
Frame rate                               : 93.750 FPS (512 SPF)
Bit depth                                : 16 bits
Compression mode                         : Lossless
Title                                    : Stereo
Language                                 : German
Default                                  : Yes
Forced                                   : No

Audio #2
ID                                       : 4
Format                                   : DTS XLL
Format/Info                              : Digital Theater Systems
Commercial name                          : DTS-HD Master Audio
Codec ID                                 : A_DTS
Duration                                 : 23 min 38 s
Bit rate mode                            : Variable
Channel(s)                               : 2 channels
Channel layout                           : L R
Sampling rate                            : 48.0 kHz
Frame rate                               : 93.750 FPS (512 SPF)
Bit depth                                : 16 bits
Compression mode                         : Lossless
Title                                    : Stereo
Language                                 : Japanese
Default                                  : No
Forced                                   : No

Text
ID                                       : 2
Format                                   : PGS
Muxing mode                              : zlib
Codec ID                                 : S_HDMV/PGS
Codec ID/Info                            : Picture based subtitle format used on BDs/HD-DVDs
Title                                    : German Full
Language                                 : German
Default                                  : No
Forced                                   : No

Menu
00:00:00.000                             : :Chapter 01
00:01:15.617                             : :Chapter 02
00:02:45.832                             : :Chapter 03
00:09:56.637                             : :Chapter 04
00:21:27.035                             : :Chapter 05
00:22:57.000                             : :Chapter 06

Rich (BBCode):
Format                                   : Matroska
Format version                           : Version 4
File size                                : 1.26 GiB
Duration                                 : 23 min 38 s
Overall bit rate mode                    : Variable
Overall bit rate                         : 7 621 kb/s
Writing application                      : no_variable_data
Writing library                          : no_variable_data
Released by                              : Anime Otakus
Version                                  : 1.1

Video
ID                                       : 1
Format                                   : AV1
Format/Info                              : AOMedia Video 1
Format profile                           : [email protected]
Codec ID                                 : V_AV1
Duration                                 : 23 min 38 s
Width                                    : 1 920 pixels
Height                                   : 1 080 pixels
Display aspect ratio                     : 16:9
Frame rate mode                          : Constant
Frame rate                               : 23.976 (24000/1001) FPS
Color space                              : YUV
Chroma subsampling                       : 4:2:0
Bit depth                                : 10 bits
Default                                  : Yes
Forced                                   : No
Color range                              : Limited
Color primaries                          : BT.709
Transfer characteristics                 : BT.709
Matrix coefficients                      : BT.709

Audio #1
ID                                       : 2
Format                                   : DTS XLL
Format/Info                              : Digital Theater Systems
Commercial name                          : DTS-HD Master Audio
Codec ID                                 : A_DTS
Duration                                 : 23 min 38 s
Bit rate mode                            : Variable
Channel(s)                               : 2 channels
Channel layout                           : L R
Sampling rate                            : 48.0 kHz
Frame rate                               : 93.750 FPS (512 SPF)
Bit depth                                : 16 bits
Compression mode                         : Lossless
Language                                 : German
Default                                  : Yes
Forced                                   : No

Audio #2
ID                                       : 3
Format                                   : DTS XLL
Format/Info                              : Digital Theater Systems
Commercial name                          : DTS-HD Master Audio
Codec ID                                 : A_DTS
Duration                                 : 23 min 38 s
Bit rate mode                            : Variable
Channel(s)                               : 2 channels
Channel layout                           : L R
Sampling rate                            : 48.0 kHz
Frame rate                               : 93.750 FPS (512 SPF)
Bit depth                                : 16 bits
Compression mode                         : Lossless
Language                                 : Japanese
Default                                  : No
Forced                                   : No

Text
ID                                       : 4
Format                                   : PGS
Muxing mode                              : zlib
Codec ID                                 : S_HDMV/PGS
Codec ID/Info                            : Picture based subtitle format used on BDs/HD-DVDs
Title                                    : German Full
Language                                 : German
Default                                  : No
Forced                                   : No

Menu
00:00:00.000                             : 00:00:00.000
00:01:15.617                             : 00:01:15.617
00:02:45.832                             : 00:02:45.832
00:09:56.637                             : 00:09:56.637
00:21:27.035                             : 00:21:27.035
00:22:57.000                             : 00:22:57.000





p6tlRgE.png

fqfOvST.png

720p EAC3
3238B070B5.png

1080p DTS-HD
86B011B9C1.png

x265 1080p DTS-HD
411DEB447B.png

AV1 1080p DTS-HD
9E8562E881.png


OQ7Exm0.png

720p EAC3
55B1BB3B3E.png

1080p DTS-HD
189327942A.png

x265 1080p DTS-HD
069787CDF2.png

AV1 1080p DTS-HD
31C3656F31.png


To view the content, you need to Sign In or Register.

 
Zuletzt bearbeitet: