1. Aktuell funktioniert unser Image Proxy nicht mehr ordnungsgemäß, sodass keine Bilder mehr angezeigt werden. Wir kümmern uns darum!

Wir verwenden Cookies, um deinen Aufenthalt auf Animes.so möglichst angenehm gestalten zu können. Mehr erfahren

Fruits Basket: The Final | Fruits Basket S03 [Laufend][JapDub][GerSub][720p|1080p][WebRip] - Wakanim

Dieses Thema im Forum "Anime Serien (Deutsche Untertitel)" wurde erstellt von Tanuki, 5. Apr. 2021.

  1. Tanuki
    Tanuki

    Uploader Otaku Experte

    Registriert seit:
    7. Juli 2016
    Beiträge:
    88
    Zustimmungen:
    18.692
    Fruits Basket: The Final
    Fruits Basket: Final Season

    [​IMG]
    [​IMG]

    Tohru Honda ist eine Oberschülerin, die nach dem Tod ihrer Mutter, ihrem letzten Familienmitglied, in einem Zelt leben muss. Allerdings gehört das Grundstück, auf dem sie ihr Zelt aufgeschlagen hat, der reichen Soma-Familie! Sie wird von Shigure Soma als Haushälterin in dessen Haus gelassen, wo sie von nun an zusammen mit Yuki Soma, einem jungen Mann mit der Aura eines Traumprinzen, sowie dessen Erzfeind Kyo Soma zusammenlebt. Allerdings weiß sie noch nicht, dass auf der Soma-Familie seit Jahrhunderten ein Fluch lastet …

    Folgen: 3/12
    Größe pro Folge: ~330 MB/~846 MB
    Folgendauer: ~24 Min
    Releaser: Tanuki
    Art: Lizenzrelease
    Sprache: Japanisch
    Untertitel: Deutsch
    Jahr: 2021
    Genres: Alltagsleben, Drama, Fantasy, Harem, Komödie, Romanze
    Auflösung: 1280x720/1920x1080
    Format: MKV
    Quelle: WebRip
    Videocodec: x264
    Farbtiefe: 8Bit
    Audiocodec: AAC
    Publisher: Wakanim DE
    Hoster: Uploaded, ddownload

    [​IMG]
    Code:
    General Unique ID : 216845243315502021314644237699179819178 (0xA322DFEEF4AF4AB324355424AC4F30AA) Complete name : Fruits.Basket.S03E01.GerSub.AAC.720p.WebRip.x264-Tanuki.mkv Format : Matroska Format version : Version 4 File size : 330 MiB Duration : 23 min 50 s Overall bit rate : 1 938 kb/s Encoded date : UTC 2021-04-05 18:02:07 Writing application : mkvmerge v52.0.0 ('Secret For The Mad') 64-bit Writing library : libebml v1.4.1 + libmatroska v1.6.2 Attachments : font.ttf Video ID : 1 Format : AVC Format/Info : Advanced Video Codec Format profile : High@L3.1 Format settings : CABAC / 4 Ref Frames Format settings, CABAC : Yes Format settings, Reference frames : 4 frames Codec ID : V_MPEG4/ISO/AVC Duration : 23 min 50 s Bit rate : 1 616 kb/s Width : 1 280 pixels Height : 720 pixels Display aspect ratio : 16:9 Frame rate mode : Constant Frame rate : 23.976 (24000/1001) FPS Color space : YUV Chroma subsampling : 4:2:0 Bit depth : 8 bits Scan type : Progressive Bits/(Pixel*Frame) : 0.073 Stream size : 275 MiB (83%) Writing library : x264 core 155 r2901 7d0ff22 Encoding settings : cabac=1 / ref=2 / deblock=1:0:0 / analyse=0x3:0x113 / me=hex / subme=6 / psy=1 / psy_rd=1.00:0.00 / mixed_ref=1 / me_range=16 / chroma_me=1 / trellis=1 / 8x8dct=1 / cqm=0 / deadzone=21,11 / fast_pskip=1 / chroma_qp_offset=-2 / threads=12 / lookahead_threads=2 / sliced_threads=0 / nr=0 / decimate=1 / interlaced=0 / bluray_compat=0 / constrained_intra=0 / bframes=3 / b_pyramid=2 / b_adapt=1 / b_bias=0 / direct=1 / weightb=1 / open_gop=0 / weightp=1 / keyint=250 / keyint_min=23 / scenecut=40 / intra_refresh=0 / rc_lookahead=30 / rc=crf / mbtree=1 / crf=16.0 / qcomp=0.60 / qpmin=0 / qpmax=69 / qpstep=4 / ip_ratio=1.40 / aq=1:1.00 Default : Yes Forced : No Audio ID : 2 Format : AAC LC Format/Info : Advanced Audio Codec Low Complexity Codec ID : A_AAC-2 Duration : 23 min 50 s Bit rate : 319 kb/s Channel(s) : 2 channels Channel layout : L R Sampling rate : 48.0 kHz Frame rate : 46.875 FPS (1024 SPF) Compression mode : Lossy Delay relative to video : -21 ms Stream size : 54.4 MiB (16%) Default : Yes Forced : No Menu 00:00:00.000 : :Vorspann 00:00:50.000 : :Opening 00:02:18.000 : :Hauptteil 00:22:17.000 : :Ending 00:23:43.000 : :Abspann ​
    Code:
    General Unique ID : 43848637598244946369333558191392028478 (0x20FCF0BF2CE3F9970A18B101FC3BF73E) Complete name : Fruits.Basket.S03E01.GerSub.AAC.1080p.WebRip.x264-Tanuki.mkv Format : Matroska Format version : Version 4 File size : 847 MiB Duration : 23 min 50 s Overall bit rate : 4 966 kb/s Encoded date : UTC 2021-04-05 18:02:09 Writing application : mkvmerge v52.0.0 ('Secret For The Mad') 64-bit Writing library : libebml v1.4.1 + libmatroska v1.6.2 Attachments : font.ttf Video ID : 1 Format : AVC Format/Info : Advanced Video Codec Format profile : High@L4 Format settings : CABAC / 4 Ref Frames Format settings, CABAC : Yes Format settings, Reference frames : 4 frames Codec ID : V_MPEG4/ISO/AVC Duration : 23 min 50 s Bit rate : 4 644 kb/s Width : 1 920 pixels Height : 1 080 pixels Display aspect ratio : 16:9 Frame rate mode : Constant Frame rate : 23.976 (24000/1001) FPS Color space : YUV Chroma subsampling : 4:2:0 Bit depth : 8 bits Scan type : Progressive Bits/(Pixel*Frame) : 0.093 Stream size : 792 MiB (94%) Writing library : x264 core 155 r2901 7d0ff22 Encoding settings : cabac=1 / ref=2 / deblock=1:0:0 / analyse=0x3:0x113 / me=hex / subme=6 / psy=1 / psy_rd=1.00:0.00 / mixed_ref=1 / me_range=16 / chroma_me=1 / trellis=1 / 8x8dct=1 / cqm=0 / deadzone=21,11 / fast_pskip=1 / chroma_qp_offset=-2 / threads=12 / lookahead_threads=2 / sliced_threads=0 / nr=0 / decimate=1 / interlaced=0 / bluray_compat=0 / constrained_intra=0 / bframes=3 / b_pyramid=2 / b_adapt=1 / b_bias=0 / direct=1 / weightb=1 / open_gop=0 / weightp=1 / keyint=250 / keyint_min=23 / scenecut=40 / intra_refresh=0 / rc_lookahead=30 / rc=crf / mbtree=1 / crf=16.0 / qcomp=0.60 / qpmin=0 / qpmax=69 / qpstep=4 / ip_ratio=1.40 / aq=1:1.00 Default : Yes Forced : No Audio ID : 2 Format : AAC LC Format/Info : Advanced Audio Codec Low Complexity Codec ID : A_AAC-2 Duration : 23 min 50 s Bit rate : 319 kb/s Channel(s) : 2 channels Channel layout : L R Sampling rate : 48.0 kHz Frame rate : 46.875 FPS (1024 SPF) Compression mode : Lossy Delay relative to video : -21 ms Stream size : 54.4 MiB (6%) Default : Yes Forced : No Menu 00:00:00.000 : :Vorspann 00:00:50.000 : :Opening 00:02:18.000 : :Hauptteil 00:22:17.000 : :Ending 00:23:43.000 : :Abspann ​

    720p:[​IMG]1080p:[​IMG]

    Geschützter Bereich
    Registriere dich oder logge dich ein, um den Inhalt sehen zu können
     
    Zuletzt bearbeitet: 19. Apr. 2021
    knuffel, ht_wbc_, Hidikus und 2 anderen gefällt das.
  2. Tanuki
    Tanuki

    Uploader Otaku Experte

    Registriert seit:
    7. Juli 2016
    Beiträge:
    88
    Zustimmungen:
    18.692
    Episode 2 hinzugefügt
     
    knuffel gefällt das.
  3. Tanuki
    Tanuki

    Uploader Otaku Experte

    Registriert seit:
    7. Juli 2016
    Beiträge:
    88
    Zustimmungen:
    18.692
    Episode 3 hinzugefügt
     

Diese Seite empfehlen