1. Die erweiterte Suche funktioniert wieder. Die LiveSearch wird gegen Ende der Woche wieder funktionieren.

Wir verwenden Cookies, um deinen Aufenthalt auf Animes.so möglichst angenehm gestalten zu können. Mehr erfahren

Fukumenkei Noise | The Anonymous Noise [Ger-Jap-Dub][Ger-Sub][MP3|AC-3|DTS-HD|PCM][408p|720p|1080p][BluRay] - AST4u

Dieses Thema im Forum "Serien (GerDub)" wurde erstellt von ClipperSunny, 17. Juli 2018.

  1. ClipperSunny

    ClipperSunny 100% Anime Otaku König

    Registriert seit:
    27. Jan. 2018
    Beiträge:
    341
    Zustimmungen:
    8.789
    The Anonymous Noise
    Fukumenkei Noise
    Anonymous Noise

    [​IMG]
    Fukumenkei Noise | The Anonymous Noise [Ger-Jap-Dub][Ger-Sub][MP3|AC-3|DTS-HD|PCM][408p|720p|1080p][BluRay] - AST4u

    Animeinformationen
    Kurzbeschreibung by AniSearch.de
    Jeden Tag steht ein junges Mädchen mit Gesichtsmaske am Strand um dort eine für es nostalgische Melodie zu singen. Nachdem sie in ihrer Kindheit gleich zwei herzzerreißende Abschiede durchleben musste, singt Nino „Alice“ Arisugawa ihre Lieder nun dem Meer vor. Sie fühlt sich von einem Versprechen gebunden, welches sie ihren beiden Kindheitsfreunden gegeben hat. Zum einen ihrer ersten Liebe, Momo Sakaki, zum anderen Kanade „Yuzu“ Yuzuriha, der damals Musik für sie komponierte. Ohne sich je persönlich getroffen zu haben, versprachen beide Jungen Nino, dass, sollten sie jemals von ihr getrennt werden, sie durch Ninos Stimme wieder zu ihr finden werden. Sechs lange Jahre später ist es soweit. Nino, Momo und Yuzu besuchen die gleiche Highschool. Doch im Verlauf der Zeit haben sich viele Dinge in ihrem Leben verändert. Während Nino weiterhin unablässig versucht, ihr Kindheitsversprechen zu erfüllen, kommen bei Yuzu die von ihm am liebsten verdrängten Gefühle für Nino wieder in voller Stärke zurück, wohingegen Momo alles versucht, um ein Wiedersehen mit Nino zu vermeiden. Wird es ihnen durch Musik gelingen, ihre alte Freundschaft wiederherzustellen und das Gefühlschaos ihres Dreiecksverhältnisses zu überwinden?


    Studio: Brain's Base
    Genre: Liebesdrama
    Nebengenre: Alltagsleben, Drama, Komödie, Psychodrama, Romanze
    Spieldauer: 24 Min.
    Jahr: 2017

    Releaseinformationen
    Episoden: 12 / 12
    Sprache:
    Deutsch, Japanisch
    Untertitel: Deutsch
    Publisher: Nipponart GmbH
    Release-Gruppe: AST4u
    Quelle: BluRay
    Format: AVI | MKV
    Video-Codec: XviD | x264
    Farbtiefe: 8bit
    Audio-Codec: MP3 | AC3 | DTS-HD | PCM
    Audio-Kanäle: GER MP3 2.0 | JAP MP3 2.0 || GER AC3 5.1 | JAP AC3 2.0 || GER AC3 5.1 | JAP AC3 2.0 || GER DTS-HD 5.1 | JAP PCM 2.0
    Auflösung: 408p | 720p | 1080p
    Größe: 263 MB | 467 MB | 845 MB | 1.42 GB
    Hoster: Share-Online.biz

    Mediainfo
    Code:
    General
    Complete name                            : Anonymous.Nose.Ep.01.German.DL.MP3.BluRay.Xvd.AST4u
    Format                                   : Matroska
    Format version                           : Version 4 / Version 2
    File size                                : 263 MiB
    Duration                                 : 23 min 56 s
    Overall bit rate                         : 1 537 kb/s
    Movie name                               : S01E01 Sassenach
    Encoded date                             : UTC 2018-07-16 10:36:48
    Writing application                      : mkvmerge v8.1.0 ('Psychedelic Postcard') 32bit
    Writing library                          : libebml v1.3.1 + libmatroska v1.4.2
    FileExtension_Invalid                    : mkv mk3d mka mks
    
    Video
    ID                                       : 3
    Format                                   : MPEG-4 Visual
    Format profile                           : Advanced Simple@L5
    Format settings                          : BVOP1
    Format settings, BVOP                    : 1
    Format settings, QPel                    : No
    Format settings, GMC                     : No warppoints
    Format settings, Matrix                  : Default (MPEG)
    Codec ID                                 : V_MS/VFW/FOURCC / XVID
    Codec ID/Hint                            : XviD
    Duration                                 : 23 min 56 s
    Bit rate                                 : 1 129 kb/s
    Width                                    : 720 pixels
    Height                                   : 408 pixels
    Display aspect ratio                     : 16:9
    Frame rate mode                          : Constant
    Frame rate                               : 23.976 (24000/1001) FPS
    Color space                              : YUV
    Chroma subsampling                       : 4:2:0
    Bit depth                                : 8 bits
    Scan type                                : Progressive
    Compression mode                         : Lossy
    Bits/(Pixel*Frame)                       : 0.160
    Stream size                              : 193 MiB (73%)
    Writing library                          : XviD 67
    Default                                  : Yes
    Forced                                   : No
    
    Audio #1
    ID                                       : 4
    Format                                   : MPEG Audio
    Format version                           : Version 1
    Format profile                           : Layer 3
    Format settings                          : Joint stereo / MS Stereo
    Codec ID                                 : A_MPEG/L3
    Codec ID/Hint                            : MP3
    Duration                                 : 23 min 56 s
    Bit rate mode                            : Constant
    Bit rate                                 : 192 kb/s
    Channel(s)                               : 2 channels
    Sampling rate                            : 48.0 kHz
    Frame rate                               : 41.667 FPS (1152 SPF)
    Compression mode                         : Lossy
    Stream size                              : 32.9 MiB (12%)
    Writing library                          : LAME3.99r
    Encoding settings                        : -m j -V 4 -q 2 -lowpass 18.6 -b 192
    Language                                 : German
    Default                                  : Yes
    Forced                                   : No
    
    Audio #2
    ID                                       : 5
    Format                                   : MPEG Audio
    Format version                           : Version 1
    Format profile                           : Layer 3
    Format settings                          : Joint stereo / MS Stereo
    Codec ID                                 : A_MPEG/L3
    Codec ID/Hint                            : MP3
    Duration                                 : 23 min 56 s
    Bit rate mode                            : Constant
    Bit rate                                 : 192 kb/s
    Channel(s)                               : 2 channels
    Sampling rate                            : 48.0 kHz
    Frame rate                               : 41.667 FPS (1152 SPF)
    Compression mode                         : Lossy
    Stream size                              : 32.9 MiB (12%)
    Writing library                          : LAME3.99r
    Encoding settings                        : -m j -V 4 -q 2 -lowpass 18.6 -b 192
    Language                                 : Japanese
    Default                                  : No
    Forced                                   : No
    
    Text #1
    ID                                       : 1
    Format                                   : PGS
    Muxing mode                              : zlib
    Codec ID                                 : S_HDMV/PGS
    Codec ID/Info                            : Picture based subtitle format used on BDs/HD-DVDs
    Duration                                 : 21 min 59 s
    Bit rate                                 : 4 149 b/s
    Count of elements                        : 83
    Stream size                              : 668 KiB (0%)
    Language                                 : German
    Default                                  : Yes
    Forced                                   : No
    
    Text #2
    ID                                       : 2
    Format                                   : PGS
    Muxing mode                              : zlib
    Codec ID                                 : S_HDMV/PGS
    Codec ID/Info                            : Picture based subtitle format used on BDs/HD-DVDs
    Duration                                 : 22 min 33 s
    Bit rate                                 : 19.3 kb/s
    Count of elements                        : 504
    Stream size                              : 3.11 MiB (1%)
    Language                                 : German
    Default                                  : No
    Forced                                   : No
    
    Code:
    General
    Complete name                            : Anonymous.Nose.Ep.01.German.AC3.DL.720p.BluRay.x264-AST4u
    Format                                   : Matroska
    Format version                           : Version 4 / Version 2
    File size                                : 467 MiB
    Duration                                 : 23 min 56 s
    Overall bit rate                         : 2 726 kb/s
    Encoded date                             : UTC 2018-07-16 09:47:59
    Writing application                      : mkvmerge v8.1.0 ('Psychedelic Postcard') 32bit
    Writing library                          : libebml v1.3.1 + libmatroska v1.4.2
    
    Video
    ID                                       : 3
    Format                                   : AVC
    Format/Info                              : Advanced Video Codec
    Format profile                           : High@L4.1
    Format settings                          : CABAC / 6 Ref Frames
    Format settings, CABAC                   : Yes
    Format settings, ReFrames                : 6 frames
    Codec ID                                 : V_MPEG4/ISO/AVC
    Duration                                 : 23 min 56 s
    Bit rate                                 : 1 806 kb/s
    Width                                    : 1 280 pixels
    Height                                   : 720 pixels
    Display aspect ratio                     : 16:9
    Frame rate mode                          : Constant
    Frame rate                               : 23.976 (24000/1001) FPS
    Color space                              : YUV
    Chroma subsampling                       : 4:2:0
    Bit depth                                : 8 bits
    Scan type                                : Progressive
    Bits/(Pixel*Frame)                       : 0.082
    Stream size                              : 309 MiB (66%)
    Writing library                          : x264 core 148 r2638 7599210
    Encoding settings                        : cabac=1 / ref=6 / deblock=1:1:1 / analyse=0x3:0x113 / me=hex / subme=9 / psy=1 / psy_rd=0.40:0.00 / mixed_ref=1 / me_range=16 / chroma_me=1 / trellis=1 / 8x8dct=1 / cqm=0 / deadzone=21,11 / fast_pskip=1 / chroma_qp_offset=-2 / threads=12 / lookahead_threads=1 / sliced_threads=0 / nr=0 / decimate=1 / interlaced=0 / bluray_compat=0 / constrained_intra=0 / bframes=5 / b_pyramid=2 / b_adapt=2 / b_bias=0 / direct=1 / weightb=1 / open_gop=0 / weightp=2 / keyint=240 / keyint_min=23 / scenecut=40 / intra_refresh=0 / rc_lookahead=40 / rc=crf / mbtree=1 / crf=16.0 / qcomp=0.60 / qpmin=0 / qpmax=69 / qpstep=4 / vbv_maxrate=62500 / vbv_bufsize=78125 / crf_max=0.0 / nal_hrd=none / filler=0 / ip_ratio=1.40 / aq=1:0.60
    Default                                  : Yes
    Forced                                   : No
    
    Audio #1
    ID                                       : 4
    Format                                   : AC-3
    Format/Info                              : Audio Coding 3
    Codec ID                                 : A_AC3
    Duration                                 : 23 min 56 s
    Bit rate mode                            : Constant
    Bit rate                                 : 448 kb/s
    Channel(s)                               : 6 channels
    Channel positions                        : Front: L C R, Side: L R, LFE
    Sampling rate                            : 48.0 kHz
    Frame rate                               : 31.250 FPS (1536 SPF)
    Bit depth                                : 16 bits
    Compression mode                         : Lossy
    Stream size                              : 76.7 MiB (16%)
    Language                                 : German
    Service kind                             : Complete Main
    Default                                  : Yes
    Forced                                   : No
    
    Audio #2
    ID                                       : 5
    Format                                   : AC-3
    Format/Info                              : Audio Coding 3
    Codec ID                                 : A_AC3
    Duration                                 : 23 min 56 s
    Bit rate mode                            : Constant
    Bit rate                                 : 448 kb/s
    Channel(s)                               : 2 channels
    Channel positions                        : Front: L R
    Sampling rate                            : 48.0 kHz
    Frame rate                               : 31.250 FPS (1536 SPF)
    Bit depth                                : 16 bits
    Compression mode                         : Lossy
    Stream size                              : 76.7 MiB (16%)
    Language                                 : Japanese
    Service kind                             : Complete Main
    Default                                  : No
    Forced                                   : No
    
    Text #1
    ID                                       : 1
    Format                                   : PGS
    Muxing mode                              : zlib
    Codec ID                                 : S_HDMV/PGS
    Codec ID/Info                            : Picture based subtitle format used on BDs/HD-DVDs
    Duration                                 : 21 min 59 s
    Bit rate                                 : 4 149 b/s
    Count of elements                        : 83
    Stream size                              : 668 KiB (0%)
    Language                                 : German
    Default                                  : Yes
    Forced                                   : No
    
    Text #2
    ID                                       : 2
    Format                                   : PGS
    Muxing mode                              : zlib
    Codec ID                                 : S_HDMV/PGS
    Codec ID/Info                            : Picture based subtitle format used on BDs/HD-DVDs
    Duration                                 : 22 min 33 s
    Bit rate                                 : 19.3 kb/s
    Count of elements                        : 504
    Stream size                              : 3.11 MiB (1%)
    Language                                 : German
    Default                                  : No
    Forced                                   : No
    
    Code:
    General
    Complete name                            : Anonymous.Nose.Ep.01.German.AC3.DL.1080p.BluRay.x264-AST4u
    Format                                   : Matroska
    Format version                           : Version 4 / Version 2
    File size                                : 845 MiB
    Duration                                 : 23 min 56 s
    Overall bit rate                         : 4 937 kb/s
    Encoded date                             : UTC 2018-07-16 09:46:23
    Writing application                      : mkvmerge v8.1.0 ('Psychedelic Postcard') 32bit
    Writing library                          : libebml v1.3.1 + libmatroska v1.4.2
    
    Video
    ID                                       : 3
    Format                                   : AVC
    Format/Info                              : Advanced Video Codec
    Format profile                           : High@L4.1
    Format settings                          : CABAC / 4 Ref Frames
    Format settings, CABAC                   : Yes
    Format settings, ReFrames                : 4 frames
    Codec ID                                 : V_MPEG4/ISO/AVC
    Duration                                 : 23 min 56 s
    Bit rate                                 : 4 017 kb/s
    Width                                    : 1 920 pixels
    Height                                   : 1 080 pixels
    Display aspect ratio                     : 16:9
    Frame rate mode                          : Constant
    Frame rate                               : 23.976 (24000/1001) FPS
    Color space                              : YUV
    Chroma subsampling                       : 4:2:0
    Bit depth                                : 8 bits
    Scan type                                : Progressive
    Bits/(Pixel*Frame)                       : 0.081
    Stream size                              : 688 MiB (81%)
    Writing library                          : x264 core 148 r2638 7599210
    Encoding settings                        : cabac=1 / ref=4 / deblock=1:1:1 / analyse=0x3:0x113 / me=hex / subme=9 / psy=1 / psy_rd=0.40:0.00 / mixed_ref=1 / me_range=16 / chroma_me=1 / trellis=1 / 8x8dct=1 / cqm=0 / deadzone=21,11 / fast_pskip=1 / chroma_qp_offset=-2 / threads=24 / lookahead_threads=2 / sliced_threads=0 / nr=0 / decimate=1 / interlaced=0 / bluray_compat=0 / constrained_intra=0 / bframes=5 / b_pyramid=2 / b_adapt=2 / b_bias=0 / direct=1 / weightb=1 / open_gop=0 / weightp=2 / keyint=240 / keyint_min=23 / scenecut=40 / intra_refresh=0 / rc_lookahead=40 / rc=crf / mbtree=1 / crf=16.0 / qcomp=0.60 / qpmin=0 / qpmax=69 / qpstep=4 / vbv_maxrate=62500 / vbv_bufsize=78125 / crf_max=0.0 / nal_hrd=none / filler=0 / ip_ratio=1.40 / aq=1:0.60
    Default                                  : Yes
    Forced                                   : No
    
    Audio #1
    ID                                       : 4
    Format                                   : AC-3
    Format/Info                              : Audio Coding 3
    Codec ID                                 : A_AC3
    Duration                                 : 23 min 56 s
    Bit rate mode                            : Constant
    Bit rate                                 : 448 kb/s
    Channel(s)                               : 6 channels
    Channel positions                        : Front: L C R, Side: L R, LFE
    Sampling rate                            : 48.0 kHz
    Frame rate                               : 31.250 FPS (1536 SPF)
    Bit depth                                : 16 bits
    Compression mode                         : Lossy
    Stream size                              : 76.7 MiB (9%)
    Language                                 : German
    Service kind                             : Complete Main
    Default                                  : Yes
    Forced                                   : No
    
    Audio #2
    ID                                       : 5
    Format                                   : AC-3
    Format/Info                              : Audio Coding 3
    Codec ID                                 : A_AC3
    Duration                                 : 23 min 56 s
    Bit rate mode                            : Constant
    Bit rate                                 : 448 kb/s
    Channel(s)                               : 2 channels
    Channel positions                        : Front: L R
    Sampling rate                            : 48.0 kHz
    Frame rate                               : 31.250 FPS (1536 SPF)
    Bit depth                                : 16 bits
    Compression mode                         : Lossy
    Stream size                              : 76.7 MiB (9%)
    Language                                 : Japanese
    Service kind                             : Complete Main
    Default                                  : No
    Forced                                   : No
    
    Text #1
    ID                                       : 1
    Format                                   : PGS
    Muxing mode                              : zlib
    Codec ID                                 : S_HDMV/PGS
    Codec ID/Info                            : Picture based subtitle format used on BDs/HD-DVDs
    Duration                                 : 21 min 59 s
    Bit rate                                 : 4 149 b/s
    Count of elements                        : 83
    Stream size                              : 668 KiB (0%)
    Language                                 : German
    Default                                  : Yes
    Forced                                   : No
    
    Text #2
    ID                                       : 2
    Format                                   : PGS
    Muxing mode                              : zlib
    Codec ID                                 : S_HDMV/PGS
    Codec ID/Info                            : Picture based subtitle format used on BDs/HD-DVDs
    Duration                                 : 22 min 33 s
    Bit rate                                 : 19.3 kb/s
    Count of elements                        : 504
    Stream size                              : 3.11 MiB (0%)
    Language                                 : German
    Default                                  : No
    Forced                                   : No
    
    Code:
    General
    Complete name                            : Anonymous.Nose.Ep.01.German.DTS.5.1.DL.1080p.BluRay.x264-AST4u
    Format                                   : Matroska
    Format version                           : Version 4 / Version 2
    File size                                : 1.42 GiB
    Duration                                 : 23 min 56 s
    Overall bit rate                         : 8 469 kb/s
    Encoded date                             : UTC 2018-07-16 09:46:55
    Writing application                      : mkvmerge v8.1.0 ('Psychedelic Postcard') 32bit
    Writing library                          : libebml v1.3.1 + libmatroska v1.4.2
    
    Video
    ID                                       : 5
    Format                                   : AVC
    Format/Info                              : Advanced Video Codec
    Format profile                           : High@L4.1
    Format settings                          : CABAC / 4 Ref Frames
    Format settings, CABAC                   : Yes
    Format settings, ReFrames                : 4 frames
    Codec ID                                 : V_MPEG4/ISO/AVC
    Duration                                 : 23 min 56 s
    Bit rate                                 : 4 017 kb/s
    Width                                    : 1 920 pixels
    Height                                   : 1 080 pixels
    Display aspect ratio                     : 16:9
    Frame rate mode                          : Constant
    Frame rate                               : 23.976 (24000/1001) FPS
    Color space                              : YUV
    Chroma subsampling                       : 4:2:0
    Bit depth                                : 8 bits
    Scan type                                : Progressive
    Bits/(Pixel*Frame)                       : 0.081
    Stream size                              : 688 MiB (47%)
    Writing library                          : x264 core 148 r2638 7599210
    Encoding settings                        : cabac=1 / ref=4 / deblock=1:1:1 / analyse=0x3:0x113 / me=hex / subme=9 / psy=1 / psy_rd=0.40:0.00 / mixed_ref=1 / me_range=16 / chroma_me=1 / trellis=1 / 8x8dct=1 / cqm=0 / deadzone=21,11 / fast_pskip=1 / chroma_qp_offset=-2 / threads=24 / lookahead_threads=2 / sliced_threads=0 / nr=0 / decimate=1 / interlaced=0 / bluray_compat=0 / constrained_intra=0 / bframes=5 / b_pyramid=2 / b_adapt=2 / b_bias=0 / direct=1 / weightb=1 / open_gop=0 / weightp=2 / keyint=240 / keyint_min=23 / scenecut=40 / intra_refresh=0 / rc_lookahead=40 / rc=crf / mbtree=1 / crf=16.0 / qcomp=0.60 / qpmin=0 / qpmax=69 / qpstep=4 / vbv_maxrate=62500 / vbv_bufsize=78125 / crf_max=0.0 / nal_hrd=none / filler=0 / ip_ratio=1.40 / aq=1:0.60
    Default                                  : Yes
    Forced                                   : No
    
    Audio #1
    ID                                       : 1
    Format                                   : DTS
    Format/Info                              : Digital Theater Systems
    Format profile                           : MA / Core
    Codec ID                                 : A_DTS
    Duration                                 : 23 min 56 s
    Bit rate mode                            : Variable / Constant
    Bit rate                                 : 2 121 kb/s / 1 509 kb/s
    Channel(s)                               : 6 channels
    Channel positions                        : Front: L C R, Side: L R, LFE
    Sampling rate                            : 48.0 kHz
    Frame rate                               : 93.750 FPS (512 SPF)
    Bit depth                                : 16 bits
    Compression mode                         : Lossless / Lossy
    Stream size                              : 363 MiB (25%)
    Language                                 : German
    Default                                  : Yes
    Forced                                   : No
    
    Audio #2
    ID                                       : 2
    Format                                   : PCM
    Format settings                          : Big / Signed
    Codec ID                                 : A_PCM/INT/BIG
    Duration                                 : 23 min 56 s
    Bit rate mode                            : Constant
    Bit rate                                 : 2 304 kb/s
    Channel(s)                               : 2 channels
    Sampling rate                            : 48.0 kHz
    Frame rate                               : 200.000 FPS (240 SPF)
    Bit depth                                : 24 bits
    Stream size                              : 395 MiB (27%)
    Language                                 : Japanese
    Default                                  : No
    Forced                                   : No
    
    Text #1
    ID                                       : 3
    Format                                   : PGS
    Muxing mode                              : zlib
    Codec ID                                 : S_HDMV/PGS
    Codec ID/Info                            : Picture based subtitle format used on BDs/HD-DVDs
    Duration                                 : 21 min 59 s
    Bit rate                                 : 4 149 b/s
    Count of elements                        : 83
    Stream size                              : 668 KiB (0%)
    Language                                 : German
    Default                                  : Yes
    Forced                                   : No
    
    Text #2
    ID                                       : 4
    Format                                   : PGS
    Muxing mode                              : zlib
    Codec ID                                 : S_HDMV/PGS
    Codec ID/Info                            : Picture based subtitle format used on BDs/HD-DVDs
    Duration                                 : 22 min 33 s
    Bit rate                                 : 19.3 kb/s
    Count of elements                        : 504
    Stream size                              : 3.11 MiB (0%)
    Language                                 : German
    Default                                  : No
    Forced                                   : No
    
    [​IMG]
    Onlinestatus:
    [​IMG]Xvid MP3 | [​IMG]720p AC3 | [​IMG]1080p AC3 | [​IMG]1080p DTS-HD
    Geschützter Bereich
    Registriere dich oder logge dich ein, um den Inhalt sehen zu können
     
    Zuletzt bearbeitet: 6. Dez. 2018
    Vagabund, Carbon, Leomar und 60 anderen gefällt das.
  2. Uploading123

    Uploading123 High Quality Anime Seelenverkäufer

    Registriert seit:
    7. März 2013
    Beiträge:
    589
    Zustimmungen:
    14.297

    Anonymous Noise

    [​IMG]

    .:Beschreibung:.
    Nino, ein Mädchen, das es liebt zu singen, musste sich in ihrer Kindheit von zwei ihrer besten Freunde trennen. Momo, in den sie verliebt war, und Yuzu, der Songs komponiert, versprachen ihr beide, sie anhand ihrer Stimme wiederzufinden. Nino hat dieses Versprechen nicht vergessen und singt seitdem jeden Tag. Inzwischen geht das Mädchen auf die High School und wie es das Schicksal will, besuchen ihre Freunde von damals dieselbe Schule…

    .:Info:.
    Größe: 21016 MB
    Laufzeit: 24 Min.
    Format: .mkv
    Video Stream: BD
    Video Codec: MPEG-4 H.264 / AVC
    Audio Stream: DTS-HD MA 5.1
    Sprache/n: GER, JPN
    Untertitel: GER
    Releaser: AST4u
    Episodenanzahl: 12/12
    Hoster: SO, RG

    .:NFO:.
    Code:
    Anonymous.Noise.Ep.01-12.Complete.German.DTS.5.1.DL.1080p.BluRay.x264-AST4u (NEU)
    
    Originaltitel: Fukumenkei Noise
    Sprache: Deutsch, Japanisch
    Untertitel: Deutsch
    FSK: 12 Jahre
    Erscheinungstermin: 19.07.2018 - 30.11.2018 (NEU)
    Genre: Drama,Comedy, Romance, Psychodrama
    Source: BluRay
    Releasedatum: 29.11.2018
    
    Episoden...............: 01-12 / 12
    
    Format                                   : Matroska
    Dateigroesse                             : 20.50 GB
    Dauer                                    : 12 x 24 Min
    Gesamte Bitrate                          : 9 913 kb/s
    
    Video
    Format                                   : AVC
    Format-Profil                            : High@L4.1
    Bitraten-Modus                           : variabel
    Bitrate                                  : crf 16
    Breite                                   : 1 920 Pixel
    H he                                     : 1 080 Pixel
    BildseitenverhSltnis                     : 16:9
    Modus der Bildwiederholungsrate          : konstant
    Bildwiederholungsrate                    : 23,976 FPS
    
    Audio
    deutsch: DTS-HD MA 5.1
    Bitrate: 2 121 kb/s / 1 509 kb/s
    
    japanisch: PCM 2.0
    Bitrate: 2 304 kb/s
    
    Original BluRay und encodet by AST4u-HD-Crew
    
    Wir verstecken unsere wahren Gefnhle.
    
    Nino, ein MSdchen, das es liebt zu singen, musste sich in ihrer Kindheit von zwei ihrer
      besten Freunde trennen. Momo, in den sie verliebt war, und Yuzu, der Songs komponiert,
      versprachen ihr beide, sie anhand ihrer Stimme wiederzufinden. Nino hat dieses Versprechen
      nicht vergessen und singt seitdem jeden Tag. Inzwischen geht das MSdchen auf die High
      School und wie es das Schicksal will, besuchen ihre Freunde von damals dieselbe Schule
    
    äEndlich trafen sich unsere Blicke.ô
    
    Nino nimmt Yuzus Angebot an und schlnpft in die Haut von äin NO hurrysô Alice. Sie soll
      fnr die Band wShrend eines TV-Auftritts singen. Am selben Tag findet auch die Finalrunde
      des Castings fnr Momos Band statt, zu der Nino zugelassen wurde. Am Tag der Entscheidung
      singt sich das MSdchen die Seele aus dem Leib, um ihren Kindheitsfreund zu erreichen. Sie
      wei  jedoch nicht, dass Momo in der Jury sitzt. Wie wird er reagieren und wird Nino den
      Fernsehauftritt nberstehen?
    
    Mach, dass es dich erreicht.
    
    In NO hurry soll wShrend eines Festivals auftreten, bei dem auch Momos Band "Black Kitty"
      spielen wird. Yuzu sucht das GesprSch mit Momo, um ein fnr allemal zu klSren, zu wem Nino
      geh rt. Nino hingegen versucht, ihre grosse Liebe Momo beim Festival mit ihrer Stimme zu
      erreichen. Wird er sich nach ihr umdrehen?
    
    Die Serie basiert auf der beliebten gleichnamigen Mangareihe von Ryoko Fukuyama. Fnr die
      Rocknummern der Serie, die von den japanischen Synchronsprecherinnen selbst gesungen
      werden, zeichnet sich NARASAKI aus, der bereits fnr Bands wie BABYMETAL oder Momoiro
      Clover Z Songs geschrieben hat. Nipponart prSsentiert die ersten vier Episoden auf
      Blu-ray.
    
    äDie ungew hnliche Mixtur aus rockigem Alternative-Sound, Liebesdrama und Sozialstudie ist
      nicht nur aufgrund ihres tiefgrnndigen, melancholischen Inhaltes, sondern ebenso ob ihres
      rockigen Soundtracks einen Blick wert.ô - (Toxi Sushi)
    
    01 Wir verstecken unsere wahren Gefnhle
    02 Lieber Gott, bitte mach, dass sich Alice' Liebe nicht erfnllt
    03 Unbedingt, jetzt sofort
    04 Der Tag, an dem wir, die wir unsere wahren Gefnhle versteckten, uns die HSnde reichten
    05 Dieses LScheln hStte ich nicht sehen mnssen
    06 Ich werde laufen, heute und auch morgen
    07 Endlich trafen sich unsere Blicke
    08 Ich werde dein Freund, ganz sicher!
    09 Und so liefen wir los, der Sonne entgegen
    10 Ich war derjenige, der Alice' Feuer entfachte
    11 Ich sorge dafnr, dass niemand gehen wird
    12 Mach, dass es dich erreicht
    
    https://ast4u.me
    


    Mirrors kompatibel

    .:Share-online.biz:. [​IMG]
    Geschützter Bereich
    Registriere dich oder logge dich ein, um den Inhalt sehen zu können
    .:Rapidgator.net:. [​IMG]
    Geschützter Bereich
    Registriere dich oder logge dich ein, um den Inhalt sehen zu können
     
    brunsdumm, HoDeluxe, Eukarion und 2 anderen gefällt das.