Wir verwenden Cookies, um deinen Aufenthalt auf Animes.so möglichst angenehm gestalten zu können. Mehr erfahren

Godzilla [Laufend][Ger-Eng-Jap-Multi-Dub][Ger-Eng-Multi-Sub][1080p][WebRip] - Netflix

Dieses Thema im Forum "Filme (GerSub- /Dub)" wurde erstellt von T§sseract, 18. Jan. 2018.

  1. T§sseract

    T§sseract Bedürftiger Fansubber xD Otaku Experte

    Registriert seit:
    9. Juni 2016
    Beiträge:
    77
    Zustimmungen:
    766
    Godzilla
    Godzilla: Planet der Monster
    ゴジラ



    [​IMG]


    Kurzbeschreibung:


    Spieldauer: 89min
    Genre: Action
    Nebengenres: Action, Scifi
    Jahr: 2017
    Sprache: Spanisch, Englisch, Französisch, Deutsch, Portugiesisch, Japanisch
    Untertitel: Spanisch, Englisch, Französisch, Deutsch, Portugiesisch, Koreanisch, Chinesisch
    Größe pro Folge:~4,6GB
    Episodenanzahl: 2/3
    Format: MKV
    Auflösung: 1080p (16:9)
    Videocodec: H264 (AVC)
    Audiocodec: AC-3
    Publisher: Netflix
    Releasegruppe: DragsterPS
    Hoster: Share-Online


    Code:
    Format  : Matroska
    Format version  : Version 4 / Version 2
    File size  : 4.49 GiB
    Duration  : 1h 28mn
    Overall bit rate mode  : Variable
    Overall bit rate  : 7 258 Kbps
    Encoded date  : UTC 2018-01-17 16:37:56
    Writing application  : mkvmerge v20.0.0 ('I Am The Sun') 64-bit
    Writing library  : libebml v1.3.5 + libmatroska v1.4.8
    DURATION  : 01:27:52.916000000
    NUMBER_OF_FRAMES  : 1050
    NUMBER_OF_BYTES  : 40048
    _STATISTICS_WRITING_APP  : mkvmerge v20.0.0 ('I Am The Sun') 64-bit
    _STATISTICS_WRITING_DATE_UTC  : 2018-01-17 16:37:56
    _STATISTICS_TAGS  : BPS DURATION NUMBER_OF_FRAMES NUMBER_OF_BYTES
    
    Video
    ID  : 1
    Format  : AVC
    Format/Info  : Advanced Video Codec
    Format profile  : Main@L4
    Format settings, CABAC  : Yes
    Format settings, ReFrames  : 3 frames
    Codec ID  : V_MPEG4/ISO/AVC
    Duration  : 1h 28mn
    Bit rate mode  : Variable
    Bit rate  : 3 830 Kbps
    Maximum bit rate  : 5 745 Kbps
    Width  : 1 920 pixels
    Height  : 1 080 pixels
    Display aspect ratio  : 16:9
    Frame rate mode  : Constant
    Frame rate  : 24.000 fps
    Color space  : YUV
    Chroma subsampling  : 4:2:0
    Bit depth  : 8 bits
    Scan type  : Progressive
    Bits/(Pixel*Frame)  : 0.077
    Stream size  : 2.26 GiB (50%)
    Writing library  : x264 core 148 r2714 2daf636
    Encoding settings  : cabac=1 / ref=3 / deblock=1:0:0 / analyse=0x1:0x111 / me=umh / subme=10 / psy=1 / psy_rd=1.00:0.00 / mixed_ref=1 / me_range=24 / chroma_me=1 / trellis=2 / 8x8dct=0 / cqm=0 / deadzone=21,11 / fast_pskip=1 / chroma_qp_offset=-2 / threads=8 / lookahead_threads=1 / sliced_threads=0 / nr=0 / decimate=1 / interlaced=0 / bluray_compat=0 / stitchable=1 / constrained_intra=0 / bframes=2 / b_pyramid=0 / b_adapt=2 / b_bias=0 / direct=3 / weightb=1 / open_gop=0 / weightp=2 / keyint=48 / keyint_min=25 / scenecut=0 / intra_refresh=0 / rc_lookahead=48 / rc=2pass / mbtree=1 / bitrate=3830 / ratetol=1.0 / qcomp=0.50 / qpmin=6 / qpmax=51 / qpstep=4 / cplxblur=20.0 / qblur=0.5 / vbv_maxrate=5745 / vbv_bufsize=7660 / nal_hrd=vbr / filler=0 / ip_ratio=1.40 / aq=1:1.00
    Default  : Yes
    Forced  : No
    
    Audio #1
    ID  : 2
    Format  : AC-3
    Format/Info  : Audio Coding 3
    Mode extension  : CM (complete main)
    Format settings, Endianness  : Big
    Codec ID  : A_AC3
    Duration  : 1h 28mn
    Bit rate mode  : Constant
    Bit rate  : 384 Kbps
    Channel(s)  : 6 channels
    Channel positions  : Front: L C R, Side: L R, LFE
    Sampling rate  : 48.0 KHz
    Compression mode  : Lossy
    Stream size  : 243 MiB (5%)
    Title  : Castilian
    Language  : Spanish
    Default  : No
    Forced  : No
    
    Audio #2
    ID  : 3
    Format  : AC-3
    Format/Info  : Audio Coding 3
    Mode extension  : CM (complete main)
    Format settings, Endianness  : Big
    Codec ID  : A_AC3
    Duration  : 1h 28mn
    Bit rate mode  : Constant
    Bit rate  : 384 Kbps
    Channel(s)  : 6 channels
    Channel positions  : Front: L C R, Side: L R, LFE
    Sampling rate  : 48.0 KHz
    Compression mode  : Lossy
    Stream size  : 243 MiB (5%)
    Title  : Spanish
    Language  : Spanish
    Default  : No
    Forced  : No
    
    Audio #3
    ID  : 4
    Format  : AC-3
    Format/Info  : Audio Coding 3
    Mode extension  : CM (complete main)
    Format settings, Endianness  : Big
    Codec ID  : A_AC3
    Duration  : 1h 28mn
    Bit rate mode  : Constant
    Bit rate  : 384 Kbps
    Channel(s)  : 6 channels
    Channel positions  : Front: L C R, Side: L R, LFE
    Sampling rate  : 48.0 KHz
    Compression mode  : Lossy
    Stream size  : 243 MiB (5%)
    Title  : English
    Language  : English
    Default  : No
    Forced  : No
    
    Audio #4
    ID  : 5
    Format  : AC-3
    Format/Info  : Audio Coding 3
    Mode extension  : CM (complete main)
    Format settings, Endianness  : Big
    Codec ID  : A_AC3
    Duration  : 1h 28mn
    Bit rate mode  : Constant
    Bit rate  : 384 Kbps
    Channel(s)  : 6 channels
    Channel positions  : Front: L C R, Side: L R, LFE
    Sampling rate  : 48.0 KHz
    Compression mode  : Lossy
    Stream size  : 243 MiB (5%)
    Title  : French
    Language  : French
    Default  : No
    Forced  : No
    
    Audio #5
    ID  : 6
    Format  : AC-3
    Format/Info  : Audio Coding 3
    Mode extension  : CM (complete main)
    Format settings, Endianness  : Big
    Codec ID  : A_AC3
    Duration  : 1h 28mn
    Bit rate mode  : Constant
    Bit rate  : 384 Kbps
    Channel(s)  : 6 channels
    Channel positions  : Front: L C R, Side: L R, LFE
    Sampling rate  : 48.0 KHz
    Compression mode  : Lossy
    Stream size  : 243 MiB (5%)
    Title  : Deutsch
    Language  : German
    Default  : Yes
    Forced  : No
    
    Audio #6
    ID  : 7
    Format  : AC-3
    Format/Info  : Audio Coding 3
    Mode extension  : CM (complete main)
    Format settings, Endianness  : Big
    Codec ID  : A_AC3
    Duration  : 1h 28mn
    Bit rate mode  : Constant
    Bit rate  : 384 Kbps
    Channel(s)  : 6 channels
    Channel positions  : Front: L C R, Side: L R, LFE
    Sampling rate  : 48.0 KHz
    Compression mode  : Lossy
    Stream size  : 243 MiB (5%)
    Title  : Italian
    Language  : Italian
    Default  : No
    Forced  : No
    
    Audio #7
    ID  : 8
    Format  : AC-3
    Format/Info  : Audio Coding 3
    Mode extension  : CM (complete main)
    Format settings, Endianness  : Big
    Codec ID  : A_AC3
    Duration  : 1h 28mn
    Bit rate mode  : Constant
    Bit rate  : 384 Kbps
    Channel(s)  : 6 channels
    Channel positions  : Front: L C R, Side: L R, LFE
    Sampling rate  : 48.0 KHz
    Compression mode  : Lossy
    Stream size  : 243 MiB (5%)
    Title  : Brazilian Portuguese
    Language  : Portuguese
    Default  : No
    Forced  : No
    
    Audio #8
    ID  : 9
    Format  : AC-3
    Format/Info  : Audio Coding 3
    Mode extension  : CM (complete main)
    Format settings, Endianness  : Big
    Codec ID  : A_AC3
    Duration  : 1h 28mn
    Bit rate mode  : Constant
    Bit rate  : 384 Kbps
    Channel(s)  : 6 channels
    Channel positions  : Front: L C R, Side: L R, LFE
    Sampling rate  : 48.0 KHz
    Compression mode  : Lossy
    Stream size  : 243 MiB (5%)
    Title  : Japanese
    Language  : Japanese
    Default  : No
    Forced  : No
    
    Audio #9
    ID  : 10
    Format  : AC-3
    Format/Info  : Audio Coding 3
    Mode extension  : CM (complete main)
    Format settings, Endianness  : Big
    Codec ID  : A_AC3
    Duration  : 1h 28mn
    Bit rate mode  : Constant
    Bit rate  : 384 Kbps
    Channel(s)  : 6 channels
    Channel positions  : Front: L C R, Side: L R, LFE
    Sampling rate  : 48.0 KHz
    Compression mode  : Lossy
    Stream size  : 243 MiB (5%)
    Title  : Japanese (Audio Description)
    Language  : Japanese
    Default  : No
    Forced  : No
    
    Text #1
    ID  : 11
    Format  : UTF-8
    Codec ID  : S_TEXT/UTF8
    Codec ID/Info  : UTF-8 Plain Text
    Title  : Castilian [Forced]
    Language  : Spanish
    Default  : No
    Forced  : Yes
    
    Text #2
    ID  : 12
    Format  : UTF-8
    Codec ID  : S_TEXT/UTF8
    Codec ID/Info  : UTF-8 Plain Text
    Title  : Castilian [Full]
    Language  : Spanish
    Default  : No
    Forced  : No
    
    Text #3
    ID  : 13
    Format  : UTF-8
    Codec ID  : S_TEXT/UTF8
    Codec ID/Info  : UTF-8 Plain Text
    Title  : Spanish [Forced]
    Language  : Spanish
    Default  : No
    Forced  : Yes
    
    Text #4
    ID  : 14
    Format  : UTF-8
    Codec ID  : S_TEXT/UTF8
    Codec ID/Info  : UTF-8 Plain Text
    Title  : Spanish [Full]
    Language  : Spanish
    Default  : No
    Forced  : No
    
    Text #5
    ID  : 15
    Format  : UTF-8
    Codec ID  : S_TEXT/UTF8
    Codec ID/Info  : UTF-8 Plain Text
    Title  : English [Full]
    Language  : English
    Default  : No
    Forced  : No
    
    Text #6
    ID  : 16
    Format  : UTF-8
    Codec ID  : S_TEXT/UTF8
    Codec ID/Info  : UTF-8 Plain Text
    Title  : French [Forced]
    Language  : French
    Default  : No
    Forced  : Yes
    
    Text #7
    ID  : 17
    Format  : UTF-8
    Codec ID  : S_TEXT/UTF8
    Codec ID/Info  : UTF-8 Plain Text
    Title  : French [Full]
    Language  : French
    Default  : No
    Forced  : No
    
    Text #8
    ID  : 18
    Format  : UTF-8
    Codec ID  : S_TEXT/UTF8
    Codec ID/Info  : UTF-8 Plain Text
    Title  : Deutsch [Forced]
    Language  : German
    Default  : Yes
    Forced  : Yes
    
    Text #9
    ID  : 19
    Format  : UTF-8
    Codec ID  : S_TEXT/UTF8
    Codec ID/Info  : UTF-8 Plain Text
    Title  : Deutsch [Full]
    Language  : German
    Default  : No
    Forced  : No
    
    Text #10
    ID  : 20
    Format  : UTF-8
    Codec ID  : S_TEXT/UTF8
    Codec ID/Info  : UTF-8 Plain Text
    Title  : Italian [Forced]
    Language  : Italian
    Default  : No
    Forced  : Yes
    
    Text #11
    ID  : 21
    Format  : UTF-8
    Codec ID  : S_TEXT/UTF8
    Codec ID/Info  : UTF-8 Plain Text
    Title  : Italian [Full]
    Language  : Italian
    Default  : No
    Forced  : No
    
    Text #12
    ID  : 22
    Format  : UTF-8
    Codec ID  : S_TEXT/UTF8
    Codec ID/Info  : UTF-8 Plain Text
    Title  : Portuguese [Full]
    Language  : Portuguese
    Default  : No
    Forced  : No
    
    Text #13
    ID  : 23
    Format  : UTF-8
    Codec ID  : S_TEXT/UTF8
    Codec ID/Info  : UTF-8 Plain Text
    Title  : Brazilian Portuguese [Forced]
    Language  : Portuguese
    Default  : No
    Forced  : Yes
    
    Text #14
    ID  : 24
    Format  : UTF-8
    Codec ID  : S_TEXT/UTF8
    Codec ID/Info  : UTF-8 Plain Text
    Title  : Brazilian Portuguese [Full]
    Language  : Portuguese
    Default  : No
    Forced  : No
    
    Text #15
    ID  : 25
    Format  : UTF-8
    Codec ID  : S_TEXT/UTF8
    Codec ID/Info  : UTF-8 Plain Text
    Title  : Polish [Full]
    Language  : Polish
    Default  : No
    Forced  : No
    
    Text #16
    ID  : 26
    Format  : UTF-8
    Codec ID  : S_TEXT/UTF8
    Codec ID/Info  : UTF-8 Plain Text
    Title  : Turkish [Full]
    Language  : Turkish
    Default  : No
    Forced  : No
    
    Text #17
    ID  : 27
    Format  : UTF-8
    Codec ID  : S_TEXT/UTF8
    Codec ID/Info  : UTF-8 Plain Text
    Title  : Swedish [Full]
    Language  : Swedish
    Default  : No
    Forced  : No
    
    Text #18
    ID  : 28
    Format  : UTF-8
    Codec ID  : S_TEXT/UTF8
    Codec ID/Info  : UTF-8 Plain Text
    Title  : Danish [Full]
    Language  : Danish
    Default  : No
    Forced  : No
    
    Text #19
    ID  : 29
    Format  : UTF-8
    Codec ID  : S_TEXT/UTF8
    Codec ID/Info  : UTF-8 Plain Text
    Title  : Finnish [Full]
    Language  : Finnish
    Default  : No
    Forced  : No
    
    Text #20
    ID  : 30
    Format  : UTF-8
    Codec ID  : S_TEXT/UTF8
    Codec ID/Info  : UTF-8 Plain Text
    Title  : Dutch [Full]
    Language  : Dutch
    Default  : No
    Forced  : No
    
    Text #21
    ID  : 31
    Format  : UTF-8
    Codec ID  : S_TEXT/UTF8
    Codec ID/Info  : UTF-8 Plain Text
    Title  : Norwegian [Full]
    Language  : Norwegian
    Default  : No
    Forced  : No
    
    Text #22
    ID  : 32
    Format  : UTF-8
    Codec ID  : S_TEXT/UTF8
    Codec ID/Info  : UTF-8 Plain Text
    Title  : Greek [Full]
    Language  : Greek
    Default  : No
    Forced  : No
    
    Text #23
    ID  : 33
    Format  : UTF-8
    Codec ID  : S_TEXT/UTF8
    Codec ID/Info  : UTF-8 Plain Text
    Title  : Hebrew [Full]
    Language  : Hebrew
    Default  : No
    Forced  : No
    
    Text #24
    ID  : 34
    Format  : UTF-8
    Codec ID  : S_TEXT/UTF8
    Codec ID/Info  : UTF-8 Plain Text
    Title  : Arabic [Full]
    Language  : Arabic
    Default  : No
    Forced  : No
    
    Text #25
    ID  : 35
    Format  : UTF-8
    Codec ID  : S_TEXT/UTF8
    Codec ID/Info  : UTF-8 Plain Text
    Title  : Romanian [Full]
    Language  : Romanian
    Default  : No
    Forced  : No
    
    Text #26
    ID  : 36
    Format  : UTF-8
    Codec ID  : S_TEXT/UTF8
    Codec ID/Info  : UTF-8 Plain Text
    Title  : Thai [Full]
    Language  : Thai
    Default  : No
    Forced  : No
    
    Text #27
    ID  : 37
    Format  : UTF-8
    Codec ID  : S_TEXT/UTF8
    Codec ID/Info  : UTF-8 Plain Text
    Title  : Korean [Full]
    Language  : Korean
    Default  : No
    Forced  : No
    
    Text #28
    ID  : 38
    Format  : UTF-8
    Codec ID  : S_TEXT/UTF8
    Codec ID/Info  : UTF-8 Plain Text
    Title  : Chinese (Simplified) [Full]
    Language  : Chinese
    Default  : No
    Forced  : No
    
    Text #29
    ID  : 39
    Format  : UTF-8
    Codec ID  : S_TEXT/UTF8
    Codec ID/Info  : UTF-8 Plain Text
    Title  : Chinese (Traditional) [Full]
    Language  : Chinese
    Default  : No
    Forced  : No
    
    



    [​IMG]
    Status:
    [​IMG]

    Geschützter Bereich
    Registriere dich oder logge dich ein, um den Inhalt sehen zu können
    AnimeReleaseManager v3
     
    Zuletzt bearbeitet: 18. Juli 2018 um 19:32 Uhr
    paulito.1, darkwarrior, errolan und 41 anderen gefällt das.
  2. Ta@

    Ta@ Erfahrener Otaku Otaku König

    Registriert seit:
    7. Juli 2016
    Beiträge:
    215
    Zustimmungen:
    4.024
    Godzilla
    Godzilla: Monster Planet, Godzilla: Planet of the Monsters

    [​IMG]
    [​IMG]
    Im letzten Sommer des 20. Jahrhunderts tauchen aus dem Nichts plötzlich riesige Monster, sogenannte Kaijus, auf der Erde auf und die Menschheit muss auf grausame Weise lernen, dass nicht mehr sie die Herrscher über die Welt sind. Mit den Kaijus erscheint auch Godzilla, der sich ihnen siegreich im Kampf entgegenstellt und sich somit als stärkstes aller Monster behauptet. Durch das Aufeinandertreffen dieser Giganten gerät die Menschheit jedoch an den Rand der Auslöschung und so bleibt ihr als einziger Ausweg zum Überleben nur, die Erde zu verlassen. Eine von der Regierung geschaffene künstliche Intelligenz wählt die Besatzung für das Aussiedlungsraumschiff Aratrum aus, das sich auf den Weg nach Tau Cetus e begibt, ein Planet, der 11,9 Lichtjahre von der Erde entfernt ist. Als sie Tau e jedoch nach 20 Jahren erreichen, muss die Besatzung der Aratrum schmerzlich feststellen, dass dieser aufgrund der vorgefundenen Begebenheiten nicht von Menschen bewohnbar ist. An Bord befindet sich Haruo Sakaki, der als 4-Jähriges Kind miterleben musste, wie seine Eltern vor seinen Augen von Godzilla getötet wurden. Er beschließt als einzigen Ausweg die Rückkehr zur Erde, um dort Godzilla zu vernichten und die Zerstörung der Erde noch abzuwenden. Doch als sie schließlich auf der Erde landen, erkennen sie, dass beinahe 20.000 Jahre seit ihrem Aufbruch vergangen sind und die Welt, wie sie sie verlassen haben, nicht mehr existiert. Die Menschheit muss sich Godzilla, der nunmehr die Erde beherrscht, in einem unerbittlichen Kampf stellen, wenn sie ihren Planeten zurückerobern und ihr Überleben sichern wollen!


    Folgen: 2/3
    Größe pro Folge: ~1965 MB/~3140 MB
    Folgendauer: ~89 Min
    Releaser: Ta@
    Art: Lizenzrelease
    Sprache: Japanisch, Deutsch, Englisch
    Untertitel: Japanisch, Deutsch, Englisch
    Genres: Action, Scifi
    Jahr: 2018
    Auflösung: 1280x720/1920x1080
    Format: MKV
    Quelle: WebRip
    Videocodec: x264
    Farbtiefe: 8Bit
    Audiocodec: AC3
    Hoster: Share-Online

    [​IMG]
    Code:
    General Complete name : [Ta@]Godzilla_Planet_of_the_Monsters_01_[Web,720p,AC3].mkv Format : Matroska Format version : Version 4 / Version 2 File size : 1.92 GiB Duration : 1 h 28 min Overall bit rate mode : Variable Overall bit rate : 3 099 kb/s Encoded date : UTC 2018-07-12 16:45:42 Writing application : mkvmerge v10.0.0 ('To Drown In You') 64bit Writing library : libebml v1.3.4 + libmatroska v1.4.5 Attachments : lt.ttf / ltf.ttf Video ID : 1 Format : AVC Format/Info : Advanced Video Codec Format profile : Main@L3.1 Format settings : CABAC / 3 Ref Frames Format settings, CABAC : Yes Format settings, RefFrames : 3 frames Codec ID : V_MPEG4/ISO/AVC Duration : 1 h 28 min Bit rate mode : Variable Bit rate : 1 960 kb/s Maximum bit rate : 2 940 kb/s Width : 1 280 pixels Height : 720 pixels Display aspect ratio : 16:9 Frame rate mode : Constant Frame rate : 24.000 FPS Color space : YUV Chroma subsampling : 4:2:0 Bit depth : 8 bits Scan type : Progressive Bits/(Pixel*Frame) : 0.089 Stream size : 1.20 GiB (63%) Writing library : x264 core 148 r2715 7e75228 Encoding settings : cabac=1 / ref=3 / deblock=1:0:0 / analyse=0x1:0x111 / me=umh / subme=10 / psy=1 / psy_rd=1.00:0.00 / mixed_ref=1 / me_range=24 / chroma_me=1 / trellis=2 / 8x8dct=0 / cqm=0 / deadzone=21,11 / fast_pskip=1 / chroma_qp_offset=-2 / threads=8 / lookahead_threads=1 / sliced_threads=0 / nr=0 / decimate=1 / interlaced=0 / bluray_compat=0 / stitchable=1 / constrained_intra=0 / bframes=2 / b_pyramid=0 / b_adapt=2 / b_bias=0 / direct=3 / weightb=1 / open_gop=0 / weightp=2 / keyint=48 / keyint_min=25 / scenecut=0 / intra_refresh=0 / rc_lookahead=48 / rc=2pass / mbtree=1 / bitrate=1960 / ratetol=1.0 / qcomp=0.50 / qpmin=6 / qpmax=51 / qpstep=4 / cplxblur=20.0 / qblur=0.5 / vbv_maxrate=2940 / vbv_bufsize=3920 / nal_hrd=vbr / filler=0 / ip_ratio=1.40 / aq=1:1.00 Default : Yes Forced : No Audio #1 ID : 2 Format : AC-3 Format/Info : Audio Coding 3 Codec ID : A_AC3 Duration : 1 h 28 min Bit rate mode : Constant Bit rate : 384 kb/s Channel(s) : 6 channels Channel positions : Front: L C R, Side: L R, LFE Sampling rate : 48.0 kHz Frame rate : 31.250 FPS (1536 SPF) Bit depth : 16 bits Compression mode : Lossy Stream size : 243 MiB (12%) Title : Deutsch Language : German Service kind : Complete Main Default : Yes Forced : No Audio #2 ID : 3 Format : AC-3 Format/Info : Audio Coding 3 Codec ID : A_AC3 Duration : 1 h 28 min Bit rate mode : Constant Bit rate : 384 kb/s Channel(s) : 6 channels Channel positions : Front: L C R, Side: L R, LFE Sampling rate : 48.0 kHz Frame rate : 31.250 FPS (1536 SPF) Bit depth : 16 bits Compression mode : Lossy Stream size : 243 MiB (12%) Title : Japanisch Language : Japanese Service kind : Complete Main Default : No Forced : No Audio #3 ID : 4 Format : AC-3 Format/Info : Audio Coding 3 Codec ID : A_AC3 Duration : 1 h 28 min Bit rate mode : Constant Bit rate : 384 kb/s Channel(s) : 6 channels Channel positions : Front: L C R, Side: L R, LFE Sampling rate : 48.0 kHz Frame rate : 31.250 FPS (1536 SPF) Bit depth : 16 bits Compression mode : Lossy Stream size : 243 MiB (12%) Title : Englisch Language : English Service kind : Complete Main Default : No Forced : No Text #1 ID : 5 Format : ASS Codec ID : S_TEXT/ASS Codec ID/Info : Advanced Sub Station Alpha Duration : 5 min 1 s Bit rate : 2 b/s Count of elements : 2 Compression mode : Lossless Stream size : 85.0 Bytes (0%) Title : Deutsch [Forced] Language : German Default : Yes Forced : No Text #2 ID : 6 Format : ASS Codec ID : S_TEXT/ASS Codec ID/Info : Advanced Sub Station Alpha Duration : 1 h 22 min Bit rate : 117 b/s Count of elements : 1050 Compression mode : Lossless Stream size : 71.1 KiB (0%) Title : Deutsch [Full] Language : German Default : No Forced : No Text #3 ID : 7 Format : ASS Codec ID : S_TEXT/ASS Codec ID/Info : Advanced Sub Station Alpha Duration : 1 h 26 min Bit rate : 105 b/s Count of elements : 1046 Compression mode : Lossless Stream size : 67.0 KiB (0%) Title : Englisch [Full] Language : English Default : No Forced : No Text #4 ID : 8 Format : UTF-8 Codec ID : S_TEXT/UTF8 Codec ID/Info : UTF-8 Plain Text Duration : 1 h 27 min Bit rate : 97 b/s Count of elements : 1484 Stream size : 62.3 KiB (0%) Title : Japanisch [SDH] Language : Japanese Default : No Forced : No ​
    Code:
    General Complete name : [Ta@]Godzilla_Planet_of_the_Monsters_01_[Web,1080p,AC3].mkv Format : Matroska Format version : Version 4 / Version 2 File size : 3.07 GiB Duration : 1 h 28 min Overall bit rate mode : Variable Overall bit rate : 4 959 kb/s Encoded date : UTC 2018-07-12 16:48:42 Writing application : mkvmerge v10.0.0 ('To Drown In You') 64bit Writing library : libebml v1.3.4 + libmatroska v1.4.5 Attachments : lt.ttf / ltf.ttf Video ID : 1 Format : AVC Format/Info : Advanced Video Codec Format profile : Main@L4 Format settings : CABAC / 3 Ref Frames Format settings, CABAC : Yes Format settings, RefFrames : 3 frames Codec ID : V_MPEG4/ISO/AVC Duration : 1 h 28 min Bit rate mode : Variable Bit rate : 3 830 kb/s Maximum bit rate : 5 745 kb/s Width : 1 920 pixels Height : 1 080 pixels Display aspect ratio : 16:9 Frame rate mode : Constant Frame rate : 24.000 FPS Color space : YUV Chroma subsampling : 4:2:0 Bit depth : 8 bits Scan type : Progressive Bits/(Pixel*Frame) : 0.077 Stream size : 2.35 GiB (77%) Writing library : x264 core 148 r2715 7e75228 Encoding settings : cabac=1 / ref=3 / deblock=1:0:0 / analyse=0x1:0x111 / me=umh / subme=10 / psy=1 / psy_rd=1.00:0.00 / mixed_ref=1 / me_range=24 / chroma_me=1 / trellis=2 / 8x8dct=0 / cqm=0 / deadzone=21,11 / fast_pskip=1 / chroma_qp_offset=-2 / threads=8 / lookahead_threads=1 / sliced_threads=0 / nr=0 / decimate=1 / interlaced=0 / bluray_compat=0 / stitchable=1 / constrained_intra=0 / bframes=2 / b_pyramid=0 / b_adapt=2 / b_bias=0 / direct=3 / weightb=1 / open_gop=0 / weightp=2 / keyint=48 / keyint_min=25 / scenecut=0 / intra_refresh=0 / rc_lookahead=48 / rc=2pass / mbtree=1 / bitrate=3830 / ratetol=1.0 / qcomp=0.50 / qpmin=6 / qpmax=51 / qpstep=4 / cplxblur=20.0 / qblur=0.5 / vbv_maxrate=5745 / vbv_bufsize=7660 / nal_hrd=vbr / filler=0 / ip_ratio=1.40 / aq=1:1.00 Default : Yes Forced : No Audio #1 ID : 2 Format : AC-3 Format/Info : Audio Coding 3 Codec ID : A_AC3 Duration : 1 h 28 min Bit rate mode : Constant Bit rate : 384 kb/s Channel(s) : 6 channels Channel positions : Front: L C R, Side: L R, LFE Sampling rate : 48.0 kHz Frame rate : 31.250 FPS (1536 SPF) Bit depth : 16 bits Compression mode : Lossy Stream size : 243 MiB (8%) Title : Deutsch Language : German Service kind : Complete Main Default : Yes Forced : No Audio #2 ID : 3 Format : AC-3 Format/Info : Audio Coding 3 Codec ID : A_AC3 Duration : 1 h 28 min Bit rate mode : Constant Bit rate : 384 kb/s Channel(s) : 6 channels Channel positions : Front: L C R, Side: L R, LFE Sampling rate : 48.0 kHz Frame rate : 31.250 FPS (1536 SPF) Bit depth : 16 bits Compression mode : Lossy Stream size : 243 MiB (8%) Title : Japanisch Language : Japanese Service kind : Complete Main Default : No Forced : No Audio #3 ID : 4 Format : AC-3 Format/Info : Audio Coding 3 Codec ID : A_AC3 Duration : 1 h 28 min Bit rate mode : Constant Bit rate : 384 kb/s Channel(s) : 6 channels Channel positions : Front: L C R, Side: L R, LFE Sampling rate : 48.0 kHz Frame rate : 31.250 FPS (1536 SPF) Bit depth : 16 bits Compression mode : Lossy Stream size : 243 MiB (8%) Title : Englisch Language : English Service kind : Complete Main Default : No Forced : No Text #1 ID : 5 Format : ASS Codec ID : S_TEXT/ASS Codec ID/Info : Advanced Sub Station Alpha Duration : 5 min 1 s Bit rate : 2 b/s Count of elements : 2 Compression mode : Lossless Stream size : 85.0 Bytes (0%) Title : Deutsch [Forced] Language : German Default : Yes Forced : No Text #2 ID : 6 Format : ASS Codec ID : S_TEXT/ASS Codec ID/Info : Advanced Sub Station Alpha Duration : 1 h 22 min Bit rate : 117 b/s Count of elements : 1050 Compression mode : Lossless Stream size : 71.1 KiB (0%) Title : Deutsch [Full] Language : German Default : No Forced : No Text #3 ID : 7 Format : ASS Codec ID : S_TEXT/ASS Codec ID/Info : Advanced Sub Station Alpha Duration : 1 h 26 min Bit rate : 105 b/s Count of elements : 1046 Compression mode : Lossless Stream size : 67.0 KiB (0%) Title : Englisch [Full] Language : English Default : No Forced : No Text #4 ID : 8 Format : UTF-8 Codec ID : S_TEXT/UTF8 Codec ID/Info : UTF-8 Plain Text Duration : 1 h 27 min Bit rate : 97 b/s Count of elements : 1484 Stream size : 62.3 KiB (0%) Title : Japanisch [SDH] Language : Japanese Default : No Forced : No ​

    720p:[​IMG]1080p:[​IMG]

    Geschützter Bereich
    Registriere dich oder logge dich ein, um den Inhalt sehen zu können
     
    Zuletzt bearbeitet: 18. Juli 2018 um 09:52 Uhr
  3. Ta@

    Ta@ Erfahrener Otaku Otaku König

    Registriert seit:
    7. Juli 2016
    Beiträge:
    215
    Zustimmungen:
    4.024
    ~Film 2 "Eine Stadt am Rande der Schlacht" online~
     
    chopper23, farmerjoe und mariko091 gefällt das.