Welcome to our Community
Wanting to join the rest of our members? Feel free to sign up today.
Sign up

Haikyu!! To the Top [Laufend][Ger-Dub][720p|1080p][EAC3][Web-DL] - Amazon

Azugo

H͓̽u͓̽g͓̽o͓̽ ͓̽&͓̽ ͓̽A͓̽z͓̽u͓̽r͓̽a͓̽
Otaku Gott
Uploader
25 März 2020
3.189
24.363
113

Haikyu!! To the Top



wsywJ0l.jpg



oie_bchbujbgr3vm-png.30595

anisearch.com schrieb:
»Haikyuu!! To the Top (2020)« ist die zweite Hälfte der vierten Staffel und wirft den Zuschauer zurück ins Geschehen des Nationalturniers der Oberschulen, das bereits in der ersten Hälfte begann. Die Karasuno-Oberschule konnte ihr Auftaktspiel gewinnen, doch ihr zweiter Gegner gehört bereits zu den gefürchtetsten des ganzen Turniers: die Inarizaki-Oberschule, die nicht nur im »Inter-High-Nationalturnier 2012« Zweiter geworden ist, sondern zu allem Übel auch noch eine regelrechte Armee des Anfeuerns mit sich führt.

Die Mannschaft der Karasuno-Oberschule muss erneut über sich hinauswachsen – es wird sich zeigen, was Tobio Kageyama und Kei Tsukishima in ihren jeweiligen Trainingslagern gelernt haben. Nachdem Inarizaki ihren Gegner mit einem Auftakt-Ass direkt schockiert, entwickelt sich ein Schlagabtausch, bei dem sich Karasuno trotz mitunter irritierender Fanunterstützung nicht unterkriegen lässt. Doch dann dreht der Gegner den Spieß auf eine Weise um, mit der Shouyou Hinata und seine Teammitglieder in ihren schlimmsten Träumen nicht gerechnet hätten.
Quelle: https://www.anisearch.de/anime/14041


oie_bchbujbgr3vm1-png.30596


Spieldauer: ~24min
Genre: Ganbatte
Nebengenres: Ganbatte, Komödie, Sport
Jahr: 2019
Sprache: Deutsch
Untertitle: Deutsch Forced
Größe pro Folge: ~500mb, ~1150mb
Episodenanzahl: 10/13
Format: MKV
Auflösung: 720p (16:9), 1080p (16:9)
Videocodec: H264 (AVC)
Audiocodec: EAC3
Releasegruppe: Hugo
Hoster: ddownload, uploaded


oie_bchbujbgr3vm2-png.30597

Code:
[color=Turquoise]Format                                   : Matroska
Format version                           : Version 4
File size                                : 500 MiB
Duration                                 : 22 min 55 s
Overall bit rate mode                    : Variable
Overall bit rate                         : 3 047 kb/s
Encoded date                             : UTC 2021-04-04 15:58:26
Writing application                      : mkvmerge v55.0.0 ('Waiting For Space') 64-bit
Writing library                          : libebml v1.4.2 + libmatroska v1.6.4

Video
ID                                       : 1
Format                                   : AVC
Format/Info                              : Advanced Video Codec
Format profile                           : [email protected]
Format settings                          : CABAC / 4 Ref Frames
Format settings, CABAC                   : Yes
Format settings, Reference frames        : 4 frames
Codec ID                                 : V_MPEG4/ISO/AVC
Duration                                 : 22 min 55 s
Bit rate mode                            : Variable
Bit rate                                 : 2 821 kb/s
Maximum bit rate                         : 10 000 kb/s
Width                                    : 1 280 pixels
Height                                   : 720 pixels
Display aspect ratio                     : 16:9
Frame rate mode                          : Constant
Frame rate                               : 25.000 FPS
Color space                              : YUV
Chroma subsampling                       : 4:2:0
Bit depth                                : 8 bits
Scan type                                : Progressive
Bits/(Pixel*Frame)                       : 0.122
Stream size                              : 463 MiB (93%)
Default                                  : Yes
Forced                                   : No
Color range                              : Limited

Audio
ID                                       : 2
Format                                   : E-AC-3
Format/Info                              : Enhanced AC-3
Commercial name                          : Dolby Digital Plus
Codec ID                                 : A_EAC3
Duration                                 : 22 min 55 s
Bit rate mode                            : Constant
Bit rate                                 : 224 kb/s
Channel(s)                               : 2 channels
Channel layout                           : L R
Sampling rate                            : 48.0 kHz
Frame rate                               : 31.250 FPS (1536 SPF)
Bit depth                                : 32 bits
Compression mode                         : Lossy
Stream size                              : 36.7 MiB (7%)
Language                                 : German
Service kind                             : Complete Main
Default                                  : Yes
Forced                                   : No

[/color]
Code:
[color=Turquoise]Format                                   : Matroska
Format version                           : Version 4
File size                                : 1.15 GiB
Duration                                 : 22 min 55 s
Overall bit rate mode                    : Variable
Overall bit rate                         : 7 208 kb/s
Encoded date                             : UTC 2021-04-04 15:58:19
Writing application                      : mkvmerge v55.0.0 ('Waiting For Space') 64-bit
Writing library                          : libebml v1.4.2 + libmatroska v1.6.4

Video
ID                                       : 1
Format                                   : AVC
Format/Info                              : Advanced Video Codec
Format profile                           : [email protected]
Format settings                          : CABAC / 4 Ref Frames
Format settings, CABAC                   : Yes
Format settings, Reference frames        : 4 frames
Codec ID                                 : V_MPEG4/ISO/AVC
Duration                                 : 22 min 55 s
Bit rate mode                            : Variable
Bit rate                                 : 6 982 kb/s
Maximum bit rate                         : 10 000 kb/s
Width                                    : 1 920 pixels
Height                                   : 1 080 pixels
Display aspect ratio                     : 16:9
Frame rate mode                          : Constant
Frame rate                               : 25.000 FPS
Color space                              : YUV
Chroma subsampling                       : 4:2:0
Bit depth                                : 8 bits
Scan type                                : Progressive
Bits/(Pixel*Frame)                       : 0.135
Stream size                              : 1.12 GiB (97%)
Default                                  : Yes
Forced                                   : No

Audio
ID                                       : 2
Format                                   : E-AC-3
Format/Info                              : Enhanced AC-3
Commercial name                          : Dolby Digital Plus
Codec ID                                 : A_EAC3
Duration                                 : 22 min 55 s
Bit rate mode                            : Constant
Bit rate                                 : 224 kb/s
Channel(s)                               : 2 channels
Channel layout                           : L R
Sampling rate                            : 48.0 kHz
Frame rate                               : 31.250 FPS (1536 SPF)
Bit depth                                : 32 bits
Compression mode                         : Lossy
Stream size                              : 36.7 MiB (3%)
Language                                 : German
Service kind                             : Complete Main
Default                                  : Yes
Forced                                   : No

[/color]



oie_bchbujbgr3vm3-png.30598

720p
CCCA1AA3FF.png

1080p
15829DA150.png

To view the content, you need to Sign In or Register.

 
Zuletzt bearbeitet: