Wir verwenden Cookies, um deinen Aufenthalt auf Animes.so möglichst angenehm gestalten zu können. Mehr erfahren

Haikyuu!! Second Season | Zweite Staffel [Laufend][Ger-Jap-Dub][Ger-Sub][MP3|AC-3|DTS-HD][408|720p|1080p][BluRay] - AST4u

Dieses Thema im Forum "Serien (GerDub)" wurde erstellt von Ta@, 20. Juni 2018.

  1. Ta@

    Ta@ Treues Mitglied Seelenverkäufer

    Registriert seit:
    7. Juli 2016
    Beiträge:
    399
    Zustimmungen:
    10.378
    Haikyuu!! Second Season
    Haikyu!! Zweite Staffel
    Haikyuu!! 2

    [​IMG]
    [​IMG]
    Haikyuu!! geht mit der Second Season in die zweite Runde und setzt die Ereignisse aus Haikyuu!! nahtlos fort.

    Im Zentrum der Geschichte steht weiterhin das Volleyballteam der Karasuno Oberschule und der harte Weg zum Erfolg! Shouyou Hinata ist inspiriert von seinem kleinen, großen Vorbild, dem Little Giant, und setzt alles daran, ihm im Bezug auf die Spielweise nachzueifern. Auch Tobio Kageyama, der Steller von Karasuno, arbeitet hart an sich um den negativen Beiklang seines Spitznamens "König des Feldes" vergessen zu machen. Alle versuchen, sich konstant zu verbessern, doch der Weg zum Erfolg ist geprägt von Entbehrungen, kniffeligen Prüfungen und herben Rückschlägen. So findet sich das Team von Karasuno nach und nach.
    Wie wird sich Karasuno weiter entwickeln? Erreicht das Team von Karasuno ihr selbst gestecktes Ziel – das große Finale der nationalen Oberschulmeisterschaften?


    Folgen: 19/25
    Größe pro Folge: ~265 MB/~465 MB/~1024 MB/~1215 MB
    Folgendauer: ~24 Min
    Releaser: AST4u
    Art: Lizenzrelease
    Sprache: Japanisch, Deutsch
    Untertitel: Deutsch
    Auflösung: 720x408/1280x720/1920x1080
    Format: MKV
    Quelle: BDRip
    Videocodec: x264
    Farbtiefe: 8Bit
    Audiocodec: MP3/AC3/DTS
    Hoster: Share-Online

    [​IMG]
    Code:
    General Complete name : Haikyu.Second.Season.Ep.01.German.DL.MP3.BluRay.Xvid.AST4u.avi Format : Matroska Format version : Version 4 / Version 2 File size : 290 MiB Duration : 24 min 1 s Overall bit rate : 1 687 kb/s Movie name : S01E01 Sassenach Encoded date : UTC 2018-06-20 14:38:00 Writing application : mkvmerge v8.1.0 ('Psychedelic Postcard') 32bit Writing library : libebml v1.3.1 + libmatroska v1.4.2 FileExtension_Invalid : mkv mk3d mka mks Video ID : 2 Format : MPEG-4 Visual Format profile : Advanced Simple@L5 Format settings : BVOP2 Format settings, BVOP : 2 Format settings, QPel : No Format settings, GMC : No warppoints Format settings, Matrix : Default (MPEG) Codec ID : V_MS/VFW/FOURCC / XVID Codec ID/Hint : XviD Duration : 24 min 1 s Bit rate : 1 295 kb/s Width : 720 pixels Height : 408 pixels Display aspect ratio : 16:9 Frame rate mode : Constant Frame rate : 23.976 (23976/1000) FPS Color space : YUV Chroma subsampling : 4:2:0 Bit depth : 8 bits Scan type : Progressive Compression mode : Lossy Bits/(Pixel*Frame) : 0.184 Stream size : 222 MiB (77%) Writing library : XviD 67 Default : Yes Forced : No Audio #1 ID : 3 Format : MPEG Audio Format version : Version 1 Format profile : Layer 3 Format settings : Joint stereo / MS Stereo Codec ID : A_MPEG/L3 Codec ID/Hint : MP3 Duration : 24 min 1 s Bit rate mode : Constant Bit rate : 192 kb/s Channel(s) : 2 channels Sampling rate : 48.0 kHz Frame rate : 41.667 FPS (1152 SPF) Compression mode : Lossy Stream size : 33.0 MiB (11%) Writing library : LAME3.99r Encoding settings : -m j -V 4 -q 2 -lowpass 18.6 -b 192 Language : German Default : Yes Forced : No Audio #2 ID : 4 Format : MPEG Audio Format version : Version 1 Format profile : Layer 3 Format settings : Joint stereo / MS Stereo Codec ID : A_MPEG/L3 Codec ID/Hint : MP3 Duration : 24 min 1 s Bit rate mode : Constant Bit rate : 192 kb/s Channel(s) : 2 channels Sampling rate : 48.0 kHz Frame rate : 41.667 FPS (1152 SPF) Compression mode : Lossy Stream size : 33.0 MiB (11%) Writing library : LAME3.99r Encoding settings : -m j -V 4 -q 2 -lowpass 18.6 -b 192 Language : Japanese Default : No Forced : No Text ID : 1 Format : PGS Muxing mode : zlib Codec ID : S_HDMV/PGS Codec ID/Info : Picture based subtitle format used on BDs/HD-DVDs Duration : 23 min 30 s Bit rate : 6 294 b/s Count of elements : 502 Stream size : 1.06 MiB (0%) Language : German Default : Yes Forced : No ​
    Code:
    General Complete name : Haikyu.Second.Season.Ep.01.German.AC3.DL.720p.BluRay.x264-AST4u.mkv Format : Matroska Format version : Version 4 / Version 2 File size : 515 MiB Duration : 24 min 1 s Overall bit rate : 2 998 kb/s Encoded date : UTC 2018-06-20 14:34:48 Writing application : mkvmerge v8.1.0 ('Psychedelic Postcard') 32bit Writing library : libebml v1.3.1 + libmatroska v1.4.2 Video ID : 2 Format : AVC Format/Info : Advanced Video Codec Format profile : High@L4.1 Format settings : CABAC / 6 Ref Frames Format settings, CABAC : Yes Format settings, RefFrames : 6 frames Codec ID : V_MPEG4/ISO/AVC Duration : 24 min 1 s Bit rate : 2 094 kb/s Width : 1 280 pixels Height : 720 pixels Display aspect ratio : 16:9 Frame rate mode : Constant Frame rate : 23.976 (24000/1001) FPS Color space : YUV Chroma subsampling : 4:2:0 Bit depth : 8 bits Scan type : Progressive Bits/(Pixel*Frame) : 0.095 Stream size : 360 MiB (70%) Writing library : x264 core 148 r2638 7599210 Encoding settings : cabac=1 / ref=6 / deblock=1:1:1 / analyse=0x3:0x113 / me=hex / subme=9 / psy=1 / psy_rd=0.40:0.00 / mixed_ref=1 / me_range=16 / chroma_me=1 / trellis=1 / 8x8dct=1 / cqm=0 / deadzone=21,11 / fast_pskip=1 / chroma_qp_offset=-2 / threads=12 / lookahead_threads=1 / sliced_threads=0 / nr=0 / decimate=1 / interlaced=0 / bluray_compat=0 / constrained_intra=0 / bframes=5 / b_pyramid=2 / b_adapt=2 / b_bias=0 / direct=1 / weightb=1 / open_gop=0 / weightp=2 / keyint=240 / keyint_min=23 / scenecut=40 / intra_refresh=0 / rc_lookahead=40 / rc=crf / mbtree=1 / crf=16.0 / qcomp=0.60 / qpmin=0 / qpmax=69 / qpstep=4 / vbv_maxrate=62500 / vbv_bufsize=78125 / crf_max=0.0 / nal_hrd=none / filler=0 / ip_ratio=1.40 / aq=1:0.60 Default : Yes Forced : No Audio #1 ID : 3 Format : AC-3 Format/Info : Audio Coding 3 Codec ID : A_AC3 Duration : 24 min 1 s Bit rate mode : Constant Bit rate : 448 kb/s Channel(s) : 2 channels Channel positions : Front: L R Sampling rate : 48.0 kHz Frame rate : 31.250 FPS (1536 SPF) Bit depth : 16 bits Compression mode : Lossy Stream size : 77.0 MiB (15%) Language : German Service kind : Complete Main Default : Yes Forced : No Audio #2 ID : 4 Format : AC-3 Format/Info : Audio Coding 3 Codec ID : A_AC3 Duration : 24 min 1 s Bit rate mode : Constant Bit rate : 448 kb/s Channel(s) : 2 channels Channel positions : Front: L R Sampling rate : 48.0 kHz Frame rate : 31.250 FPS (1536 SPF) Bit depth : 16 bits Compression mode : Lossy Stream size : 77.0 MiB (15%) Language : Japanese Service kind : Complete Main Default : No Forced : No Text ID : 1 Format : PGS Muxing mode : zlib Codec ID : S_HDMV/PGS Codec ID/Info : Picture based subtitle format used on BDs/HD-DVDs Duration : 23 min 30 s Bit rate : 6 294 b/s Count of elements : 502 Stream size : 1.06 MiB (0%) Language : German Default : Yes Forced : No ​
    Code:
    General Complete name : Haikyu.Second.Season.Ep.01.German.AC3.DL.1080p.BluRay.x264-AST4u.mkv Format : Matroska Format version : Version 4 / Version 2 File size : 1.09 GiB Duration : 24 min 1 s Overall bit rate : 6 510 kb/s Movie name : 00801 Encoded date : UTC 2018-06-20 14:44:43 Writing application : mkvmerge v8.1.0 ('Psychedelic Postcard') 32bit Writing library : libebml v1.3.1 + libmatroska v1.4.2 Video ID : 2 Format : AVC Format/Info : Advanced Video Codec Format profile : High@L4.1 Format settings : CABAC / 4 Ref Frames Format settings, CABAC : Yes Format settings, RefFrames : 4 frames Codec ID : V_MPEG4/ISO/AVC Duration : 24 min 1 s Bit rate : 5 606 kb/s Width : 1 920 pixels Height : 1 080 pixels Display aspect ratio : 16:9 Frame rate mode : Constant Frame rate : 23.976 (24000/1001) FPS Color space : YUV Chroma subsampling : 4:2:0 Bit depth : 8 bits Scan type : Progressive Bits/(Pixel*Frame) : 0.113 Stream size : 963 MiB (86%) Writing library : x264 core 148 r2638 7599210 Encoding settings : cabac=1 / ref=4 / deblock=1:1:1 / analyse=0x3:0x113 / me=hex / subme=9 / psy=1 / psy_rd=0.40:0.00 / mixed_ref=1 / me_range=16 / chroma_me=1 / trellis=1 / 8x8dct=1 / cqm=0 / deadzone=21,11 / fast_pskip=1 / chroma_qp_offset=-2 / threads=24 / lookahead_threads=2 / sliced_threads=0 / nr=0 / decimate=1 / interlaced=0 / bluray_compat=0 / constrained_intra=0 / bframes=5 / b_pyramid=2 / b_adapt=2 / b_bias=0 / direct=1 / weightb=1 / open_gop=0 / weightp=2 / keyint=240 / keyint_min=23 / scenecut=40 / intra_refresh=0 / rc_lookahead=40 / rc=crf / mbtree=1 / crf=16.0 / qcomp=0.60 / qpmin=0 / qpmax=69 / qpstep=4 / vbv_maxrate=62500 / vbv_bufsize=78125 / crf_max=0.0 / nal_hrd=none / filler=0 / ip_ratio=1.40 / aq=1:0.60 Default : Yes Forced : No Audio #1 ID : 3 Format : AC-3 Format/Info : Audio Coding 3 Codec ID : A_AC3 Duration : 24 min 1 s Bit rate mode : Constant Bit rate : 448 kb/s Channel(s) : 2 channels Channel positions : Front: L R Sampling rate : 48.0 kHz Frame rate : 31.250 FPS (1536 SPF) Bit depth : 16 bits Compression mode : Lossy Stream size : 77.0 MiB (7%) Language : German Service kind : Complete Main Default : Yes Forced : No Audio #2 ID : 4 Format : AC-3 Format/Info : Audio Coding 3 Codec ID : A_AC3 Duration : 24 min 1 s Bit rate mode : Constant Bit rate : 448 kb/s Channel(s) : 2 channels Channel positions : Front: L R Sampling rate : 48.0 kHz Frame rate : 31.250 FPS (1536 SPF) Bit depth : 16 bits Compression mode : Lossy Stream size : 77.0 MiB (7%) Language : Japanese Service kind : Complete Main Default : No Forced : No Text ID : 1 Format : PGS Muxing mode : zlib Codec ID : S_HDMV/PGS Codec ID/Info : Picture based subtitle format used on BDs/HD-DVDs Duration : 23 min 30 s Bit rate : 6 294 b/s Count of elements : 502 Stream size : 1.06 MiB (0%) Language : German Default : Yes Forced : No ​
    Code:
    General Complete name : Haikyu.Second.Season.Ep.01.German.DTS.2.0.DL.1080p.BluRay.x264-AST4u.mkv Format : Matroska Format version : Version 4 / Version 2 File size : 1.29 GiB Duration : 24 min 1 s Overall bit rate : 7 682 kb/s Movie name : 00801 Encoded date : UTC 2018-06-20 14:45:51 Writing application : mkvmerge v8.1.0 ('Psychedelic Postcard') 32bit Writing library : libebml v1.3.1 + libmatroska v1.4.2 Video ID : 4 Format : AVC Format/Info : Advanced Video Codec Format profile : High@L4.1 Format settings : CABAC / 4 Ref Frames Format settings, CABAC : Yes Format settings, RefFrames : 4 frames Codec ID : V_MPEG4/ISO/AVC Duration : 24 min 1 s Bit rate : 5 606 kb/s Width : 1 920 pixels Height : 1 080 pixels Display aspect ratio : 16:9 Frame rate mode : Constant Frame rate : 23.976 (24000/1001) FPS Color space : YUV Chroma subsampling : 4:2:0 Bit depth : 8 bits Scan type : Progressive Bits/(Pixel*Frame) : 0.113 Stream size : 963 MiB (73%) Writing library : x264 core 148 r2638 7599210 Encoding settings : cabac=1 / ref=4 / deblock=1:1:1 / analyse=0x3:0x113 / me=hex / subme=9 / psy=1 / psy_rd=0.40:0.00 / mixed_ref=1 / me_range=16 / chroma_me=1 / trellis=1 / 8x8dct=1 / cqm=0 / deadzone=21,11 / fast_pskip=1 / chroma_qp_offset=-2 / threads=24 / lookahead_threads=2 / sliced_threads=0 / nr=0 / decimate=1 / interlaced=0 / bluray_compat=0 / constrained_intra=0 / bframes=5 / b_pyramid=2 / b_adapt=2 / b_bias=0 / direct=1 / weightb=1 / open_gop=0 / weightp=2 / keyint=240 / keyint_min=23 / scenecut=40 / intra_refresh=0 / rc_lookahead=40 / rc=crf / mbtree=1 / crf=16.0 / qcomp=0.60 / qpmin=0 / qpmax=69 / qpstep=4 / vbv_maxrate=62500 / vbv_bufsize=78125 / crf_max=0.0 / nal_hrd=none / filler=0 / ip_ratio=1.40 / aq=1:0.60 Default : Yes Forced : No Audio #1 ID : 1 Format : DTS Format/Info : Digital Theater Systems Format profile : MA / Core Codec ID : A_DTS Duration : 24 min 1 s Bit rate mode : Variable / Constant Bit rate : 1 066 kb/s / 768 kb/s Channel(s) : 2 channels Channel positions : Front: L R Sampling rate : 48.0 kHz Frame rate : 93.750 FPS (512 SPF) Bit depth : 16 bits Compression mode : Lossless / Lossy Stream size : 183 MiB (14%) Language : German Default : Yes Forced : No Audio #2 ID : 2 Format : DTS Format/Info : Digital Theater Systems Format profile : MA / Core Codec ID : A_DTS Duration : 24 min 1 s Bit rate mode : Variable / Constant Bit rate : 999 kb/s / 768 kb/s Channel(s) : 2 channels Channel positions : Front: L R Sampling rate : 48.0 kHz Frame rate : 93.750 FPS (512 SPF) Bit depth : 16 bits Compression mode : Lossless / Lossy Stream size : 172 MiB (13%) Language : Japanese Default : No Forced : No Text ID : 3 Format : PGS Muxing mode : zlib Codec ID : S_HDMV/PGS Codec ID/Info : Picture based subtitle format used on BDs/HD-DVDs Duration : 23 min 30 s Bit rate : 6 294 b/s Count of elements : 502 Stream size : 1.06 MiB (0%) Language : German Default : Yes Forced : No ​
    SD:[​IMG]720p:[​IMG]1080p:[​IMG]1080p DTS:[​IMG]

    Geschützter Bereich
    Registriere dich oder logge dich ein, um den Inhalt sehen zu können
     
    Zuletzt bearbeitet: 10. Nov. 2018
  2. ClipperSunny

    ClipperSunny 100% Anime Otaku König

    Registriert seit:
    27. Jan. 2018
    Beiträge:
    338
    Zustimmungen:
    8.321
    Haikyu!! Zweite Staffel
    Haikyu!! 2nd Season
    Haikyuu!! Second Season

    [​IMG]
    Haikyuu!! Second Season | Haikyu!! Zweite Staffel [Ger-Jap-Dub][Ger-Sub][MP3|AC-3|DTS-HD][408p|720p|1080p][BluRay] - AST4u

    Animeinformationen
    Kurzbeschreibung by AniSearch.de
    Haikyuu!! geht mit der Second Season in die zweite Runde und setzt die Ereignisse aus Haikyuu!! nahtlos fort. Im Zentrum der Geschichte steht weiterhin das Volleyballteam der Karasuno Oberschule und der harte Weg zum Erfolg! Shouyou Hinata ist inspiriert von seinem kleinen, großen Vorbild, dem Little Giant, und setzt alles daran, ihm im Bezug auf die Spielweise nachzueifern. Auch Tobio Kageyama, der Steller von Karasuno, arbeitet hart an sich um den negativen Beiklang seines Spitznamens "König des Feldes" vergessen zu machen. Alle versuchen, sich konstant zu verbessern, doch der Weg zum Erfolg ist geprägt von Entbehrungen, kniffeligen Prüfungen und herben Rückschlägen. So findet sich das Team von Karasuno nach und nach. Wie wird sich Karasuno weiter entwickeln? Erreicht das Team von Karasuno ihr selbst gestecktes Ziel – das große Finale der nationalen Oberschulmeisterschaften?


    Studio: Production I.G., Inc.
    Genre: Ganbatte
    Nebengenre: Drama, Ganbatte, Komödie, Sport
    Spieldauer: 24 Min.
    Jahr: 2015

    Releaseinformationen
    Episoden: 13 / 25
    Sprache:
    Deutsch, Japanisch
    Untertitel: Deutsch
    Publisher: peppermint anime GmbH
    Release-Gruppe: AST4u
    Quelle: BluRay
    Format: AVI | MKV
    Video-Codec: XviD | x264
    Farbtiefe: 8bit
    Audio-Codec: MP3 | AC3 | DTS-HD
    Audio-Kanäle: GER MP3 2.0 | JAP MP3 2.0 || GER AC3 2.0 | JAP AC3 2.0 || GER AC3 2.0 | JAP AC3 2.0 || GER DTS-HD 2.0 | JAP DTS-HD 2.0
    Auflösung: 408p | 720p | 1080p
    Größe: 290 MB | 515 MB | 1.09 GB | 1.29 GB
    Hoster: Share-Online.biz

    Mediainfo
    Code:
    General
    Complete name                            : Hakyu.Second.Season.Ep.01.German.DL.MP3.BluRay.Xvd.AST4u
    Format                                   : Matroska
    Format version                           : Version 4 / Version 2
    File size                                : 290 MiB
    Duration                                 : 24 min 1 s
    Overall bit rate                         : 1 687 kb/s
    Movie name                               : S01E01 Sassenach
    Encoded date                             : UTC 2018-06-20 14:38:00
    Writing application                      : mkvmerge v8.1.0 ('Psychedelic Postcard') 32bit
    Writing library                          : libebml v1.3.1 + libmatroska v1.4.2
    FileExtension_Invalid                    : mkv mk3d mka mks
    
    Video
    ID                                       : 2
    Format                                   : MPEG-4 Visual
    Format profile                           : Advanced Simple@L5
    Format settings                          : BVOP2
    Format settings, BVOP                    : 2
    Format settings, QPel                    : No
    Format settings, GMC                     : No warppoints
    Format settings, Matrix                  : Default (MPEG)
    Codec ID                                 : V_MS/VFW/FOURCC / XVID
    Codec ID/Hint                            : XviD
    Duration                                 : 24 min 1 s
    Bit rate                                 : 1 295 kb/s
    Width                                    : 720 pixels
    Height                                   : 408 pixels
    Display aspect ratio                     : 16:9
    Frame rate mode                          : Constant
    Frame rate                               : 23.976 (23976/1000) FPS
    Color space                              : YUV
    Chroma subsampling                       : 4:2:0
    Bit depth                                : 8 bits
    Scan type                                : Progressive
    Compression mode                         : Lossy
    Bits/(Pixel*Frame)                       : 0.184
    Stream size                              : 222 MiB (77%)
    Writing library                          : XviD 67
    Default                                  : Yes
    Forced                                   : No
    
    Audio #1
    ID                                       : 3
    Format                                   : MPEG Audio
    Format version                           : Version 1
    Format profile                           : Layer 3
    Format settings                          : Joint stereo / MS Stereo
    Codec ID                                 : A_MPEG/L3
    Codec ID/Hint                            : MP3
    Duration                                 : 24 min 1 s
    Bit rate mode                            : Constant
    Bit rate                                 : 192 kb/s
    Channel(s)                               : 2 channels
    Sampling rate                            : 48.0 kHz
    Frame rate                               : 41.667 FPS (1152 SPF)
    Compression mode                         : Lossy
    Stream size                              : 33.0 MiB (11%)
    Writing library                          : LAME3.99r
    Encoding settings                        : -m j -V 4 -q 2 -lowpass 18.6 -b 192
    Language                                 : German
    Default                                  : Yes
    Forced                                   : No
    
    Audio #2
    ID                                       : 4
    Format                                   : MPEG Audio
    Format version                           : Version 1
    Format profile                           : Layer 3
    Format settings                          : Joint stereo / MS Stereo
    Codec ID                                 : A_MPEG/L3
    Codec ID/Hint                            : MP3
    Duration                                 : 24 min 1 s
    Bit rate mode                            : Constant
    Bit rate                                 : 192 kb/s
    Channel(s)                               : 2 channels
    Sampling rate                            : 48.0 kHz
    Frame rate                               : 41.667 FPS (1152 SPF)
    Compression mode                         : Lossy
    Stream size                              : 33.0 MiB (11%)
    Writing library                          : LAME3.99r
    Encoding settings                        : -m j -V 4 -q 2 -lowpass 18.6 -b 192
    Language                                 : Japanese
    Default                                  : No
    Forced                                   : No
    
    Text
    ID                                       : 1
    Format                                   : PGS
    Muxing mode                              : zlib
    Codec ID                                 : S_HDMV/PGS
    Codec ID/Info                            : Picture based subtitle format used on BDs/HD-DVDs
    Duration                                 : 23 min 30 s
    Bit rate                                 : 6 294 b/s
    Count of elements                        : 502
    Stream size                              : 1.06 MiB (0%)
    Language                                 : German
    Default                                  : Yes
    Forced                                   : No
    
    Code:
    General
    Complete name                            : Hakyu.Second.Season.Ep.01.German.AC3.DL.720p.BluRay.x264-AST4u
    Format                                   : Matroska
    Format version                           : Version 4 / Version 2
    File size                                : 515 MiB
    Duration                                 : 24 min 1 s
    Overall bit rate                         : 2 998 kb/s
    Encoded date                             : UTC 2018-06-20 14:34:48
    Writing application                      : mkvmerge v8.1.0 ('Psychedelic Postcard') 32bit
    Writing library                          : libebml v1.3.1 + libmatroska v1.4.2
    
    Video
    ID                                       : 2
    Format                                   : AVC
    Format/Info                              : Advanced Video Codec
    Format profile                           : High@L4.1
    Format settings                          : CABAC / 6 Ref Frames
    Format settings, CABAC                   : Yes
    Format settings, ReFrames                : 6 frames
    Codec ID                                 : V_MPEG4/ISO/AVC
    Duration                                 : 24 min 1 s
    Bit rate                                 : 2 094 kb/s
    Width                                    : 1 280 pixels
    Height                                   : 720 pixels
    Display aspect ratio                     : 16:9
    Frame rate mode                          : Constant
    Frame rate                               : 23.976 (24000/1001) FPS
    Color space                              : YUV
    Chroma subsampling                       : 4:2:0
    Bit depth                                : 8 bits
    Scan type                                : Progressive
    Bits/(Pixel*Frame)                       : 0.095
    Stream size                              : 360 MiB (70%)
    Writing library                          : x264 core 148 r2638 7599210
    Encoding settings                        : cabac=1 / ref=6 / deblock=1:1:1 / analyse=0x3:0x113 / me=hex / subme=9 / psy=1 / psy_rd=0.40:0.00 / mixed_ref=1 / me_range=16 / chroma_me=1 / trellis=1 / 8x8dct=1 / cqm=0 / deadzone=21,11 / fast_pskip=1 / chroma_qp_offset=-2 / threads=12 / lookahead_threads=1 / sliced_threads=0 / nr=0 / decimate=1 / interlaced=0 / bluray_compat=0 / constrained_intra=0 / bframes=5 / b_pyramid=2 / b_adapt=2 / b_bias=0 / direct=1 / weightb=1 / open_gop=0 / weightp=2 / keyint=240 / keyint_min=23 / scenecut=40 / intra_refresh=0 / rc_lookahead=40 / rc=crf / mbtree=1 / crf=16.0 / qcomp=0.60 / qpmin=0 / qpmax=69 / qpstep=4 / vbv_maxrate=62500 / vbv_bufsize=78125 / crf_max=0.0 / nal_hrd=none / filler=0 / ip_ratio=1.40 / aq=1:0.60
    Default                                  : Yes
    Forced                                   : No
    
    Audio #1
    ID                                       : 3
    Format                                   : AC-3
    Format/Info                              : Audio Coding 3
    Codec ID                                 : A_AC3
    Duration                                 : 24 min 1 s
    Bit rate mode                            : Constant
    Bit rate                                 : 448 kb/s
    Channel(s)                               : 2 channels
    Channel positions                        : Front: L R
    Sampling rate                            : 48.0 kHz
    Frame rate                               : 31.250 FPS (1536 SPF)
    Bit depth                                : 16 bits
    Compression mode                         : Lossy
    Stream size                              : 77.0 MiB (15%)
    Language                                 : German
    Service kind                             : Complete Main
    Default                                  : Yes
    Forced                                   : No
    
    Audio #2
    ID                                       : 4
    Format                                   : AC-3
    Format/Info                              : Audio Coding 3
    Codec ID                                 : A_AC3
    Duration                                 : 24 min 1 s
    Bit rate mode                            : Constant
    Bit rate                                 : 448 kb/s
    Channel(s)                               : 2 channels
    Channel positions                        : Front: L R
    Sampling rate                            : 48.0 kHz
    Frame rate                               : 31.250 FPS (1536 SPF)
    Bit depth                                : 16 bits
    Compression mode                         : Lossy
    Stream size                              : 77.0 MiB (15%)
    Language                                 : Japanese
    Service kind                             : Complete Main
    Default                                  : No
    Forced                                   : No
    
    Text
    ID                                       : 1
    Format                                   : PGS
    Muxing mode                              : zlib
    Codec ID                                 : S_HDMV/PGS
    Codec ID/Info                            : Picture based subtitle format used on BDs/HD-DVDs
    Duration                                 : 23 min 30 s
    Bit rate                                 : 6 294 b/s
    Count of elements                        : 502
    Stream size                              : 1.06 MiB (0%)
    Language                                 : German
    Default                                  : Yes
    Forced                                   : No
    
    Code:
    General
    Complete name                            : Hakyu.Second.Season.Ep.01.German.AC3.DL.1080p.BluRay.x264-AST4u
    Format                                   : Matroska
    Format version                           : Version 4 / Version 2
    File size                                : 1.09 GiB
    Duration                                 : 24 min 1 s
    Overall bit rate                         : 6 510 kb/s
    Movie name                               : 00801
    Encoded date                             : UTC 2018-06-20 14:44:43
    Writing application                      : mkvmerge v8.1.0 ('Psychedelic Postcard') 32bit
    Writing library                          : libebml v1.3.1 + libmatroska v1.4.2
    
    Video
    ID                                       : 2
    Format                                   : AVC
    Format/Info                              : Advanced Video Codec
    Format profile                           : High@L4.1
    Format settings                          : CABAC / 4 Ref Frames
    Format settings, CABAC                   : Yes
    Format settings, ReFrames                : 4 frames
    Codec ID                                 : V_MPEG4/ISO/AVC
    Duration                                 : 24 min 1 s
    Bit rate                                 : 5 606 kb/s
    Width                                    : 1 920 pixels
    Height                                   : 1 080 pixels
    Display aspect ratio                     : 16:9
    Frame rate mode                          : Constant
    Frame rate                               : 23.976 (24000/1001) FPS
    Color space                              : YUV
    Chroma subsampling                       : 4:2:0
    Bit depth                                : 8 bits
    Scan type                                : Progressive
    Bits/(Pixel*Frame)                       : 0.113
    Stream size                              : 963 MiB (86%)
    Writing library                          : x264 core 148 r2638 7599210
    Encoding settings                        : cabac=1 / ref=4 / deblock=1:1:1 / analyse=0x3:0x113 / me=hex / subme=9 / psy=1 / psy_rd=0.40:0.00 / mixed_ref=1 / me_range=16 / chroma_me=1 / trellis=1 / 8x8dct=1 / cqm=0 / deadzone=21,11 / fast_pskip=1 / chroma_qp_offset=-2 / threads=24 / lookahead_threads=2 / sliced_threads=0 / nr=0 / decimate=1 / interlaced=0 / bluray_compat=0 / constrained_intra=0 / bframes=5 / b_pyramid=2 / b_adapt=2 / b_bias=0 / direct=1 / weightb=1 / open_gop=0 / weightp=2 / keyint=240 / keyint_min=23 / scenecut=40 / intra_refresh=0 / rc_lookahead=40 / rc=crf / mbtree=1 / crf=16.0 / qcomp=0.60 / qpmin=0 / qpmax=69 / qpstep=4 / vbv_maxrate=62500 / vbv_bufsize=78125 / crf_max=0.0 / nal_hrd=none / filler=0 / ip_ratio=1.40 / aq=1:0.60
    Default                                  : Yes
    Forced                                   : No
    
    Audio #1
    ID                                       : 3
    Format                                   : AC-3
    Format/Info                              : Audio Coding 3
    Codec ID                                 : A_AC3
    Duration                                 : 24 min 1 s
    Bit rate mode                            : Constant
    Bit rate                                 : 448 kb/s
    Channel(s)                               : 2 channels
    Channel positions                        : Front: L R
    Sampling rate                            : 48.0 kHz
    Frame rate                               : 31.250 FPS (1536 SPF)
    Bit depth                                : 16 bits
    Compression mode                         : Lossy
    Stream size                              : 77.0 MiB (7%)
    Language                                 : German
    Service kind                             : Complete Main
    Default                                  : Yes
    Forced                                   : No
    
    Audio #2
    ID                                       : 4
    Format                                   : AC-3
    Format/Info                              : Audio Coding 3
    Codec ID                                 : A_AC3
    Duration                                 : 24 min 1 s
    Bit rate mode                            : Constant
    Bit rate                                 : 448 kb/s
    Channel(s)                               : 2 channels
    Channel positions                        : Front: L R
    Sampling rate                            : 48.0 kHz
    Frame rate                               : 31.250 FPS (1536 SPF)
    Bit depth                                : 16 bits
    Compression mode                         : Lossy
    Stream size                              : 77.0 MiB (7%)
    Language                                 : Japanese
    Service kind                             : Complete Main
    Default                                  : No
    Forced                                   : No
    
    Text
    ID                                       : 1
    Format                                   : PGS
    Muxing mode                              : zlib
    Codec ID                                 : S_HDMV/PGS
    Codec ID/Info                            : Picture based subtitle format used on BDs/HD-DVDs
    Duration                                 : 23 min 30 s
    Bit rate                                 : 6 294 b/s
    Count of elements                        : 502
    Stream size                              : 1.06 MiB (0%)
    Language                                 : German
    Default                                  : Yes
    Forced                                   : No
    
    Code:
    General
    Complete name                            : Hakyu.Second.Season.Ep.01.German.DTS.2.0.DL.1080p.BluRay.x264-AST4u
    Format                                   : Matroska
    Format version                           : Version 4 / Version 2
    File size                                : 1.29 GiB
    Duration                                 : 24 min 1 s
    Overall bit rate                         : 7 682 kb/s
    Movie name                               : 00801
    Encoded date                             : UTC 2018-06-20 14:45:51
    Writing application                      : mkvmerge v8.1.0 ('Psychedelic Postcard') 32bit
    Writing library                          : libebml v1.3.1 + libmatroska v1.4.2
    
    Video
    ID                                       : 4
    Format                                   : AVC
    Format/Info                              : Advanced Video Codec
    Format profile                           : High@L4.1
    Format settings                          : CABAC / 4 Ref Frames
    Format settings, CABAC                   : Yes
    Format settings, ReFrames                : 4 frames
    Codec ID                                 : V_MPEG4/ISO/AVC
    Duration                                 : 24 min 1 s
    Bit rate                                 : 5 606 kb/s
    Width                                    : 1 920 pixels
    Height                                   : 1 080 pixels
    Display aspect ratio                     : 16:9
    Frame rate mode                          : Constant
    Frame rate                               : 23.976 (24000/1001) FPS
    Color space                              : YUV
    Chroma subsampling                       : 4:2:0
    Bit depth                                : 8 bits
    Scan type                                : Progressive
    Bits/(Pixel*Frame)                       : 0.113
    Stream size                              : 963 MiB (73%)
    Writing library                          : x264 core 148 r2638 7599210
    Encoding settings                        : cabac=1 / ref=4 / deblock=1:1:1 / analyse=0x3:0x113 / me=hex / subme=9 / psy=1 / psy_rd=0.40:0.00 / mixed_ref=1 / me_range=16 / chroma_me=1 / trellis=1 / 8x8dct=1 / cqm=0 / deadzone=21,11 / fast_pskip=1 / chroma_qp_offset=-2 / threads=24 / lookahead_threads=2 / sliced_threads=0 / nr=0 / decimate=1 / interlaced=0 / bluray_compat=0 / constrained_intra=0 / bframes=5 / b_pyramid=2 / b_adapt=2 / b_bias=0 / direct=1 / weightb=1 / open_gop=0 / weightp=2 / keyint=240 / keyint_min=23 / scenecut=40 / intra_refresh=0 / rc_lookahead=40 / rc=crf / mbtree=1 / crf=16.0 / qcomp=0.60 / qpmin=0 / qpmax=69 / qpstep=4 / vbv_maxrate=62500 / vbv_bufsize=78125 / crf_max=0.0 / nal_hrd=none / filler=0 / ip_ratio=1.40 / aq=1:0.60
    Default                                  : Yes
    Forced                                   : No
    
    Audio #1
    ID                                       : 1
    Format                                   : DTS
    Format/Info                              : Digital Theater Systems
    Format profile                           : MA / Core
    Codec ID                                 : A_DTS
    Duration                                 : 24 min 1 s
    Bit rate mode                            : Variable / Constant
    Bit rate                                 : 1 066 kb/s / 768 kb/s
    Channel(s)                               : 2 channels
    Channel positions                        : Front: L R
    Sampling rate                            : 48.0 kHz
    Frame rate                               : 93.750 FPS (512 SPF)
    Bit depth                                : 16 bits
    Compression mode                         : Lossless / Lossy
    Stream size                              : 183 MiB (14%)
    Language                                 : German
    Default                                  : Yes
    Forced                                   : No
    
    Audio #2
    ID                                       : 2
    Format                                   : DTS
    Format/Info                              : Digital Theater Systems
    Format profile                           : MA / Core
    Codec ID                                 : A_DTS
    Duration                                 : 24 min 1 s
    Bit rate mode                            : Variable / Constant
    Bit rate                                 : 999 kb/s / 768 kb/s
    Channel(s)                               : 2 channels
    Channel positions                        : Front: L R
    Sampling rate                            : 48.0 kHz
    Frame rate                               : 93.750 FPS (512 SPF)
    Bit depth                                : 16 bits
    Compression mode                         : Lossless / Lossy
    Stream size                              : 172 MiB (13%)
    Language                                 : Japanese
    Default                                  : No
    Forced                                   : No
    
    Text
    ID                                       : 3
    Format                                   : PGS
    Muxing mode                              : zlib
    Codec ID                                 : S_HDMV/PGS
    Codec ID/Info                            : Picture based subtitle format used on BDs/HD-DVDs
    Duration                                 : 23 min 30 s
    Bit rate                                 : 6 294 b/s
    Count of elements                        : 502
    Stream size                              : 1.06 MiB (0%)
    Language                                 : German
    Default                                  : Yes
    Forced                                   : No
    
    [​IMG]
    Onlinestatus:
    [​IMG]Xvid MP3 | [​IMG]720p AC3 | [​IMG]1080p AC3 | [​IMG]1080p DTS-HD
    Geschützter Bereich
    Registriere dich oder logge dich ein, um den Inhalt sehen zu können
     
    Zuletzt bearbeitet: 8. Sep. 2018
    gdsatan, Invisible, Buze und 8 anderen gefällt das.
  3. Ta@

    Ta@ Treues Mitglied Seelenverkäufer

    Registriert seit:
    7. Juli 2016
    Beiträge:
    399
    Zustimmungen:
    10.378
    ~Folgen 14-19 online (6 Folgen)~
     
    DaWayne gefällt das.