Harem in the Labyrinth of Another World | Isekai Meikyuu de Harem o [Jap-Dub][Ger-Eng-Sub][1080p][Web-DL] - CR

Azugo

H͓̽u͓̽g͓̽o͓̽ ͓̽&͓̽ ͓̽A͓̽z͓̽u͓̽r͓̽a͓̽
Premium
Otaku Gott
Uploader
Beiträge
3.138
Reaktionspunkte
23.045
Punkte
113


Harem in the Labyrinth of Another World | Isekai Meikyuu de Harem o




15812.webp



oie_bchbujbgr3vm-png.30595
anisearch.com schrieb:
Da die Realität ihn nicht besonders interessiert, verbringt der Oberschüler Michio Kaga viel Zeit im Internet. Eines Tages landet er auf einer sonderbaren Website, auf der er anhand eines Punktesystems einen Charakter für eine Fantasywelt erstellt. Sobald er damit fertig ist, wird er prompt in eine andere Welt versetzt – und zwar als genau jener Charakter, den er sich gerade ausgedacht hat! Dieser starke Mann besitzt besondere Cheat-Fähigkeiten und beginnt, wunderschöne Frauen um sich zu scharen, mit denen er sich seinen ganz eigenen Fantasy-Harem zusammenstellt und auf Abenteuer auszieht.




oie_bchbujbgr3vm1-png.30596


Spieldauer: ~24min
Genre: Actiondrama
Nebengenres: Abenteuer, Fantasy, Harem
Sprache:
Japanisch.png
Japanisch
Untertitel:
Deutsch.png
Deutsch,
Englisch.png
Englisch
Größe pro Folge: ~700mb. ~1400mb
Episodenanzahl: 12/12
Format: MKV
Auflösung: 720p (16:9), 1080p (16:9)
Videocodec: H264 (AVC)
Audiocodec: AAC
Releasegruppe: Anime Otakus
Hoster:
rapidgator-gif.30742
Rapidgator,
ddownload-gif.30720
ddownload


oie_bchbujbgr3vm2-png.30597

Code:
[color=Turquoise]Format                                   : Matroska
Format version                           : Version 4
File size                                : 696 MiB
Duration                                 : 23 min 40 s
Overall bit rate                         : 4 113 kb/s
Encoded date                             : UTC 2022-07-07 09:54:30
Writing application                      : mkvmerge v68.0.0 ('The Curtain') 64-bit
Writing library                          : libebml v1.4.2 + libmatroska v1.6.4

Video
ID                                       : 1
Format                                   : AVC
Format/Info                              : Advanced Video Codec
Format profile                           : [email protected]
Format settings                          : CABAC / 6 Ref Frames
Format settings, CABAC                   : Yes
Format settings, Reference frames        : 6 frames
Codec ID                                 : V_MPEG4/ISO/AVC
Duration                                 : 23 min 39 s
Bit rate                                 : 4 000 kb/s
Width                                    : 1 280 pixels
Height                                   : 720 pixels
Display aspect ratio                     : 16:9
Frame rate mode                          : Constant
Frame rate                               : 23.976 (24000/1001) FPS
Color space                              : YUV
Chroma subsampling                       : 4:2:0
Bit depth                                : 8 bits
Scan type                                : Progressive
Bits/(Pixel*Frame)                       : 0.181
Stream size                              : 674 MiB (97%)
Writing library                          : x264 core 142
Encoding settings                        : cabac=1 / ref=6 / deblock=1:1:1 / analyse=0x3:0x113 / me=umh / subme=8 / psy=1 / psy_rd=0.40:0.00 / mixed_ref=1 / me_range=16 / chroma_me=1 / trellis=1 / 8x8dct=1 / cqm=0 / deadzone=21,11 / fast_pskip=1 / chroma_qp_offset=-2 / threads=10 / lookahead_threads=1 / sliced_threads=0 / nr=0 / decimate=1 / interlaced=0 / bluray_compat=0 / constrained_intra=0 / bframes=0 / weightp=2 / keyint=96 / keyint_min=48 / scenecut=40 / intra_refresh=0 / rc_lookahead=48 / rc=2pass / mbtree=1 / bitrate=4000 / ratetol=1.0 / qcomp=0.60 / qpmin=0 / qpmax=69 / qpstep=4 / cplxblur=20.0 / qblur=0.5 / vbv_maxrate=6000 / vbv_bufsize=9000 / nal_hrd=none / filler=0 / ip_ratio=1.40 / aq=1:0.60
Default                                  : Yes
Forced                                   : No

Audio
ID                                       : 2
Format                                   : AAC LC
Format/Info                              : Advanced Audio Codec Low Complexity
Codec ID                                 : A_AAC-2
Duration                                 : 23 min 40 s
Bit rate                                 : 128 kb/s
Channel(s)                               : 2 channels
Channel layout                           : L R
Sampling rate                            : 44.1 kHz
Frame rate                               : 43.066 FPS (1024 SPF)
Compression mode                         : Lossy
Stream size                              : 21.7 MiB (3%)
Language                                 : Japanese
Default                                  : Yes
Forced                                   : No

Text #1
ID                                       : 3
Format                                   : ASS
Codec ID                                 : S_TEXT/ASS
Codec ID/Info                            : Advanced Sub Station Alpha
Duration                                 : 22 min 3 s
Bit rate                                 : 219 b/s
Count of elements                        : 471
Compression mode                         : Lossless
Stream size                              : 35.4 KiB (0%)
Title                                    : English
Language                                 : English
Default                                  : No
Forced                                   : No

Text #2
ID                                       : 4
Format                                   : ASS
Codec ID                                 : S_TEXT/ASS
Codec ID/Info                            : Advanced Sub Station Alpha
Duration                                 : 22 min 19 s
Bit rate                                 : 300 b/s
Count of elements                        : 477
Compression mode                         : Lossless
Stream size                              : 49.2 KiB (0%)
Title                                    : German
Language                                 : German
Default                                  : Yes
Forced                                   : No
[/color]
Code:
[color=Turquoise]Format                                   : Matroska
Format version                           : Version 4
File size                                : 1.34 GiB
Duration                                 : 23 min 40 s
Overall bit rate                         : 8 119 kb/s
Encoded date                             : UTC 2022-07-07 09:54:36
Writing application                      : mkvmerge v68.0.0 ('The Curtain') 64-bit
Writing library                          : libebml v1.4.2 + libmatroska v1.6.4

Video
ID                                       : 1
Format                                   : AVC
Format/Info                              : Advanced Video Codec
Format profile                           : [email protected]
Format settings                          : CABAC / 4 Ref Frames
Format settings, CABAC                   : Yes
Format settings, Reference frames        : 4 frames
Format settings, GOP                     : N=1
Codec ID                                 : V_MPEG4/ISO/AVC
Duration                                 : 23 min 39 s
Bit rate                                 : 8 000 kb/s
Width                                    : 1 920 pixels
Height                                   : 1 080 pixels
Display aspect ratio                     : 16:9
Frame rate mode                          : Constant
Frame rate                               : 23.976 (24000/1001) FPS
Color space                              : YUV
Chroma subsampling                       : 4:2:0
Bit depth                                : 8 bits
Scan type                                : Progressive
Bits/(Pixel*Frame)                       : 0.161
Stream size                              : 1.32 GiB (98%)
Writing library                          : x264 core 142
Encoding settings                        : cabac=1 / ref=4 / deblock=1:1:1 / analyse=0x3:0x113 / me=umh / subme=8 / psy=1 / psy_rd=0.40:0.00 / mixed_ref=1 / me_range=16 / chroma_me=1 / trellis=1 / 8x8dct=1 / cqm=0 / deadzone=21,11 / fast_pskip=1 / chroma_qp_offset=-2 / threads=12 / lookahead_threads=2 / sliced_threads=0 / nr=0 / decimate=1 / interlaced=0 / bluray_compat=0 / constrained_intra=0 / bframes=0 / weightp=2 / keyint=96 / keyint_min=48 / scenecut=40 / intra_refresh=0 / rc_lookahead=48 / rc=2pass / mbtree=1 / bitrate=8000 / ratetol=1.0 / qcomp=0.60 / qpmin=0 / qpmax=69 / qpstep=4 / cplxblur=20.0 / qblur=0.5 / vbv_maxrate=12000 / vbv_bufsize=18000 / nal_hrd=none / filler=0 / ip_ratio=1.40 / aq=1:0.60
Default                                  : Yes
Forced                                   : No

Audio
ID                                       : 2
Format                                   : AAC LC
Format/Info                              : Advanced Audio Codec Low Complexity
Codec ID                                 : A_AAC-2
Duration                                 : 23 min 40 s
Bit rate                                 : 128 kb/s
Channel(s)                               : 2 channels
Channel layout                           : L R
Sampling rate                            : 44.1 kHz
Frame rate                               : 43.066 FPS (1024 SPF)
Compression mode                         : Lossy
Stream size                              : 21.7 MiB (2%)
Language                                 : Japanese
Default                                  : Yes
Forced                                   : No

Text #1
ID                                       : 3
Format                                   : ASS
Codec ID                                 : S_TEXT/ASS
Codec ID/Info                            : Advanced Sub Station Alpha
Duration                                 : 22 min 3 s
Bit rate                                 : 219 b/s
Count of elements                        : 471
Compression mode                         : Lossless
Stream size                              : 35.4 KiB (0%)
Title                                    : English
Language                                 : English
Default                                  : No
Forced                                   : No

Text #2
ID                                       : 4
Format                                   : ASS
Codec ID                                 : S_TEXT/ASS
Codec ID/Info                            : Advanced Sub Station Alpha
Duration                                 : 22 min 19 s
Bit rate                                 : 300 b/s
Count of elements                        : 477
Compression mode                         : Lossless
Stream size                              : 49.2 KiB (0%)
Title                                    : German
Language                                 : German
Default                                  : Yes
Forced                                   : No
[/color]



oie_bchbujbgr3vm3-png.30598

cooltext396117611400625-png.30739

3A622BE54F.png

cooltext3961176114006251-png.30741

B4774A65B7.png

To view the content, you need to Sign In or Register.

 
Zuletzt bearbeitet:

Azugo

H͓̽u͓̽g͓̽o͓̽ ͓̽&͓̽ ͓̽A͓̽z͓̽u͓̽r͓̽a͓̽
Premium
Otaku Gott
Uploader
Beiträge
3.138
Reaktionspunkte
23.045
Punkte
113
(っ◔◡◔)っ ♥ Episode 12 online. Anime abgeschlossen. Viel Spaß ♥
 
Oben