• Wie Du sicherlich schon gesehen hast, hat sich Animes.so gewaltig verändert. Klicke hier um mehr Informationen darüber zu erhalten.

Higurashi When They Cry - Gou[Laufend][Jap-Dub][Ger-Sub][720p|1080p][8bit|10bit][x264|x265][WebRip] - Wakanim

supersonik

Otaku König
Beiträge
223
Punkte Reaktionen
26.973
Punkte
98

Higurashi When They Cry - Gou
Higurashi no Naku Koro ni (2020)
ひぐらしのなく頃に (2020)
JoSmeod.jpg


Beschreibung:
Hinamizawa ist ein isoliertes und friedliches Dorf umgeben von üppiger Natur - ein fast schon zu friedliches Dorf. Maebara ist erst hergezogen und findet bald heraus, dass hinter dem Lächeln seiner neuen Freunde und dem friedlichen Landleben eine schreckliche Gefahr lauert ...
by wakanim

Folgen: 23/24
Größe pro Folge: ~220 MB | ~520 MB | ~250 MB
Releaser: Anime BluRay Junkies
Art: Lizenzrelease
Sprache: Japanisch
Untertitel: Deutsch
Jahr: 2020
Genres: Horror, Drama, Psychodrama, Übermäßige Gewaltdarstellung, Gegenwart
Auflösung: 1280x720 | 1920x1080
Format: MKV
Quelle: WebRip
Videocodec: x264 | x265
Farbtiefe: 8bit | 10bit
Audiocodec: EAC3 (Japanische Amazon Audio)
Publisher: Passione Co. Ltd. | Wakanim
Hoster: DDownload | Uploaded


Mediainfo:
Code:
[LEFT]
General
Unique ID                                : 253473570549792866854134655825522958834 (0xBEB13BE50424BD4BF301DD122813A1F2)
Complete name                            : Higurashi.When.they.Cry.Gou.S01E01.Subbed.EAC3.720p.WebRip.x264.Repack-ABJ.mkv
Format                                   : Matroska
Format version                           : Version 4
File size                                : 221 MiB
Duration                                 : 23 min 40 s
Overall bit rate                         : 1 303 kb/s
Encoded date                             : UTC 2021-02-24 10:42:04
Writing application                      : mkvmerge v53.0.0 ('Fool's Gold') 64-bit
Writing library                          : libebml v1.4.1 + libmatroska v1.6.2 / Lavf58.42.101

Video
ID                                       : 1
Format                                   : AVC
Format/Info                              : Advanced Video Codec
Format profile                           : [email protected]
Format settings                          : CABAC / 5 Ref Frames
Format settings, CABAC                   : Yes
Format settings, Reference frames        : 5 frames
Codec ID                                 : V_MPEG4/ISO/AVC
Duration                                 : 23 min 40 s
Bit rate                                 : 1 078 kb/s
Width                                    : 1 280 pixels
Height                                   : 720 pixels
Display aspect ratio                     : 16:9
Frame rate mode                          : Constant
Frame rate                               : 23.976 (24000/1001) FPS
Color space                              : YUV
Chroma subsampling                       : 4:2:0
Bit depth                                : 8 bits
Scan type                                : Progressive
Bits/(Pixel*Frame)                       : 0.049
Stream size                              : 182 MiB (83%)
Default                                  : Yes
Forced                                   : No

Audio
ID                                       : 2
Format                                   : E-AC-3
Format/Info                              : Enhanced AC-3
Commercial name                          : Dolby Digital Plus
Codec ID                                 : A_EAC3
Duration                                 : 23 min 40 s
Bit rate mode                            : Constant
Bit rate                                 : 224 kb/s
Channel(s)                               : 2 channels
Channel layout                           : L R
Sampling rate                            : 48.0 kHz
Frame rate                               : 31.250 FPS (1536 SPF)
Compression mode                         : Lossy
Delay relative to video                  : 18 ms
Stream size                              : 37.9 MiB (17%)
Title                                    : -25ms
Language                                 : Japanese
Service kind                             : Complete Main
Default                                  : Yes
Forced                                   : No

Menu
00:00:00.000                             : :Hauptteil
00:22:41.000                             : :Ending
00:23:34.000                             : :Abspann
[/LEFT]
Code:
[LEFT]
General
Unique ID                                : 306849293902554975335999638666684472276 (0xE6D9063C120371C485AE030238B51BD4)
Complete name                            : Higurashi.When.they.Cry.Gou.S01E01.Subbed.EAC3.1080p.WebRip.x264.Repack-ABJ.mkv
Format                                   : Matroska
Format version                           : Version 4
File size                                : 520 MiB
Duration                                 : 23 min 40 s
Overall bit rate                         : 3 074 kb/s
Encoded date                             : UTC 2021-02-24 11:24:46
Writing application                      : mkvmerge v53.0.0 ('Fool's Gold') 64-bit
Writing library                          : libebml v1.4.1 + libmatroska v1.6.2 / Lavf58.42.101

Video
ID                                       : 1
Format                                   : AVC
Format/Info                              : Advanced Video Codec
Format profile                           : [email protected]
Format settings                          : CABAC / 4 Ref Frames
Format settings, CABAC                   : Yes
Format settings, Reference frames        : 4 frames
Codec ID                                 : V_MPEG4/ISO/AVC
Duration                                 : 23 min 40 s
Bit rate                                 : 2 848 kb/s
Width                                    : 1 920 pixels
Height                                   : 1 080 pixels
Display aspect ratio                     : 16:9
Frame rate mode                          : Constant
Frame rate                               : 23.976 (24000/1001) FPS
Color space                              : YUV
Chroma subsampling                       : 4:2:0
Bit depth                                : 8 bits
Scan type                                : Progressive
Bits/(Pixel*Frame)                       : 0.057
Stream size                              : 482 MiB (93%)
Default                                  : Yes
Forced                                   : No

Audio
ID                                       : 2
Format                                   : E-AC-3
Format/Info                              : Enhanced AC-3
Commercial name                          : Dolby Digital Plus
Codec ID                                 : A_EAC3
Duration                                 : 23 min 40 s
Bit rate mode                            : Constant
Bit rate                                 : 224 kb/s
Channel(s)                               : 2 channels
Channel layout                           : L R
Sampling rate                            : 48.0 kHz
Frame rate                               : 31.250 FPS (1536 SPF)
Compression mode                         : Lossy
Delay relative to video                  : 18 ms
Stream size                              : 37.9 MiB (7%)
Title                                    : -25ms
Language                                 : Japanese
Service kind                             : Complete Main
Default                                  : Yes
Forced                                   : No

Menu
00:00:00.000                             : :Hauptteil
00:22:41.000                             : :Ending
00:23:34.000                             : :Abspann
[/LEFT]
Code:
[LEFT]
General
Unique ID                                : 198721938760582809641826141584253439843 (0x95807407F79824461E176C6CBE9ECF63)
Complete name                            : Higurashi.When.they.Cry.Gou.S01E01.Subbed.EAC3.1080p.WebRip.10bit.x265.Repack-ABJ.mkv
Format                                   : Matroska
Format version                           : Version 4
File size                                : 301 MiB
Duration                                 : 23 min 40 s
Overall bit rate                         : 1 778 kb/s
Encoded date                             : UTC 2021-02-24 05:55:49
Writing application                      : mkvmerge v53.0.0 ('Fool's Gold') 64-bit
Writing library                          : libebml v1.4.1 + libmatroska v1.6.2

Video
ID                                       : 1
Format                                   : HEVC
Format/Info                              : High Efficiency Video Coding
Format profile                           : Main [email protected]@Main
Codec ID                                 : V_MPEGH/ISO/HEVC
Duration                                 : 23 min 40 s
Bit rate                                 : 1 553 kb/s
Width                                    : 1 920 pixels
Height                                   : 1 080 pixels
Display aspect ratio                     : 16:9
Frame rate mode                          : Constant
Frame rate                               : 23.976 (24000/1001) FPS
Color space                              : YUV
Chroma subsampling                       : 4:2:0
Bit depth                                : 10 bits
Bits/(Pixel*Frame)                       : 0.031
Stream size                              : 263 MiB (87%)
Default                                  : Yes
Forced                                   : No

Audio
ID                                       : 2
Format                                   : E-AC-3
Format/Info                              : Enhanced AC-3
Commercial name                          : Dolby Digital Plus
Codec ID                                 : A_EAC3
Duration                                 : 23 min 40 s
Bit rate mode                            : Constant
Bit rate                                 : 224 kb/s
Channel(s)                               : 2 channels
Channel layout                           : L R
Sampling rate                            : 48.0 kHz
Frame rate                               : 31.250 FPS (1536 SPF)
Compression mode                         : Lossy
Delay relative to video                  : 18 ms
Stream size                              : 37.9 MiB (13%)
Title                                    : -25ms
Language                                 : Japanese
Service kind                             : Complete Main
Default                                  : No
Forced                                   : No

Menu
00:00:00.000                             : :Hauptteil
00:22:41.000                             : :Ending
00:23:34.000                             : :Abspann
[/LEFT]
720p:
F9635064BC.png

1080p:
C5501AFF4C.png

1080p-10bit-x265:
E88E8923C8.png

To view the content, you need to Sign In or Register.

 
Zuletzt bearbeitet:
Oben