Wir verwenden Cookies, um deinen Aufenthalt auf Animes.so möglichst angenehm gestalten zu können. Mehr erfahren

Hinomaru Zumou | Sumo [Laufend][Jap-Dub][Ger-Eng-Sub][720p|1080p][WebRip] - CR

Dieses Thema im Forum "Serien (GerSub)" wurde erstellt von Ta@, 6. Okt. 2018.

  1. Ta@

    Ta@ Treues Mitglied Seelenverkäufer

    Registriert seit:
    7. Juli 2016
    Beiträge:
    399
    Zustimmungen:
    10.378
    Hinomaru Zumou
    Hinomaru Sumo

    [​IMG]
    [​IMG]

    Sumo ist nicht einfach nur irgendeine Sportart, sondern ein ganz besonderer Kampfsport, ein heiliges Ritual! Ushio Hinomaru ist begeisterter Sumo-Ringer und steht daher eines Tages vor der Tür des eher schwachen Sumo-Clubs der Oodachi High School. Und auch bei Ushio würde man seine Leidenschaft nicht unbedingt auf den ersten Blick annehmen, denn er ist eher kleiner Statur und das, wo für den Sumo-Sport doch Eigenschaften wie groß und schwer die quasi wichtigsten Regeln darstellen! Auf Ushio trifft das zwar nicht unbedingt zu, das hindert ihn jedoch nicht daran, nach Großem zu streben. Und so kämpft er sich zusammen mit dem Sumo-Club nach und nach an die Spitze. Dabei verfolgt Ushio ein ganz besonderes Ziel, nämlich eines Tages den höchstrangigen Titel im Sumo-Sport zu erhalten: den Hinoshita Kaisan!

    Folgen: 7/12
    Größe pro Folge: ~410 MB/~1045 MB
    Folgendauer: ~24 Min
    Releaser: Ta@
    Art: Lizenzrelease
    Sprache: Japanisch
    Untertitel: Deutsch, Englisch
    Jahr: 2018
    Genres: Action, Alltagsleben, Drama, Ganbatte, Sport
    Auflösung: 1280x720/1920x1080
    Format: MKV
    Quelle: WebRip
    Videocodec: x264
    Farbtiefe: 8Bit
    Audiocodec: AAC
    Publisher: Crunchyroll
    Hoster: Share-Online

    [​IMG]
    Code:
    General Complete name : [Ta@]Hinomaru_Sumo_01_[Web,720p,AAC].mkv Format : Matroska Format version : Version 4 File size : 409 MiB Duration : 23 min 32 s Overall bit rate : 2 429 kb/s Encoded date : UTC 2018-10-05 18:51:25 Writing application : mkvmerge v26.0.0 ('In The Game') 64-bit Writing library : libebml v1.3.6 + libmatroska v1.4.9 Attachments : lt.ttf Video ID : 1 Format : AVC Format/Info : Advanced Video Codec Format profile : High@L4 Format settings : CABAC / 6 Ref Frames Format settings, CABAC : Yes Format settings, RefFrames : 6 frames Codec ID : V_MPEG4/ISO/AVC Duration : 23 min 32 s Bit rate : 2 298 kb/s Width : 1 280 pixels Height : 720 pixels Display aspect ratio : 16:9 Frame rate mode : Constant Frame rate : 23.976 (24000/1001) FPS Color space : YUV Chroma subsampling : 4:2:0 Bit depth : 8 bits Scan type : Progressive Bits/(Pixel*Frame) : 0.104 Stream size : 387 MiB (95%) Writing library : x264 core 142 Encoding settings : cabac=1 / ref=6 / deblock=1:1:1 / analyse=0x3:0x113 / me=umh / subme=8 / psy=1 / psy_rd=0.40:0.00 / mixed_ref=1 / me_range=16 / chroma_me=1 / trellis=1 / 8x8dct=1 / cqm=0 / deadzone=21,11 / fast_pskip=1 / chroma_qp_offset=-2 / threads=10 / lookahead_threads=1 / sliced_threads=0 / nr=0 / decimate=1 / interlaced=0 / bluray_compat=0 / constrained_intra=0 / bframes=3 / b_pyramid=2 / b_adapt=2 / b_bias=0 / direct=3 / weightb=1 / open_gop=0 / weightp=2 / keyint=48 / keyint_min=25 / scenecut=0 / intra_refresh=0 / rc_lookahead=48 / rc=crf / mbtree=1 / crf=15.0 / qcomp=0.60 / qpmin=0 / qpmax=69 / qpstep=4 / vbv_maxrate=4000 / vbv_bufsize=6000 / crf_max=0.0 / nal_hrd=none / filler=0 / ip_ratio=1.40 / aq=1:0.60 Default : Yes Forced : No Audio ID : 2 Format : AAC LC Format/Info : Advanced Audio Codec Low Complexity Codec ID : A_AAC-2 Duration : 23 min 32 s Bit rate : 128 kb/s Channel(s) : 2 channels Channel layout : L R Sampling rate : 44.1 kHz Frame rate : 43.066 FPS (1024 SPF) Compression mode : Lossy Delay relative to video : -83 ms Stream size : 21.5 MiB (5%) Default : Yes Forced : No Text #1 ID : 3 Format : ASS Codec ID : S_TEXT/ASS Codec ID/Info : Advanced Sub Station Alpha Duration : 23 min 28 s Bit rate : 144 b/s Count of elements : 381 Compression mode : Lossless Stream size : 24.8 KiB (0%) Language : German Default : Yes Forced : No Text #2 ID : 4 Format : ASS Codec ID : S_TEXT/ASS Codec ID/Info : Advanced Sub Station Alpha Duration : 23 min 28 s Bit rate : 144 b/s Count of elements : 387 Compression mode : Lossless Stream size : 24.8 KiB (0%) Language : English Default : No Forced : No ​
    Code:
    General Complete name : [Ta@]Hinomaru_Sumo_01_[Web,1080p,AAC].mkv Format : Matroska Format version : Version 4 File size : 1.02 GiB Duration : 23 min 32 s Overall bit rate : 6 211 kb/s Encoded date : UTC 2018-10-05 18:51:28 Writing application : mkvmerge v26.0.0 ('In The Game') 64-bit Writing library : libebml v1.3.6 + libmatroska v1.4.9 Attachments : lt.ttf Video ID : 1 Format : AVC Format/Info : Advanced Video Codec Format profile : High@L4 Format settings : CABAC / 4 Ref Frames Format settings, CABAC : Yes Format settings, RefFrames : 4 frames Codec ID : V_MPEG4/ISO/AVC Duration : 23 min 32 s Bit rate : 6 081 kb/s Width : 1 920 pixels Height : 1 080 pixels Display aspect ratio : 16:9 Frame rate mode : Constant Frame rate : 23.976 (24000/1001) FPS Color space : YUV Chroma subsampling : 4:2:0 Bit depth : 8 bits Scan type : Progressive Bits/(Pixel*Frame) : 0.122 Stream size : 1 024 MiB (98%) Writing library : x264 core 142 Encoding settings : cabac=1 / ref=4 / deblock=1:1:1 / analyse=0x3:0x113 / me=umh / subme=8 / psy=1 / psy_rd=0.40:0.00 / mixed_ref=1 / me_range=16 / chroma_me=1 / trellis=1 / 8x8dct=1 / cqm=0 / deadzone=21,11 / fast_pskip=1 / chroma_qp_offset=-2 / threads=12 / lookahead_threads=2 / sliced_threads=0 / nr=0 / decimate=1 / interlaced=0 / bluray_compat=0 / constrained_intra=0 / bframes=3 / b_pyramid=2 / b_adapt=2 / b_bias=0 / direct=3 / weightb=1 / open_gop=0 / weightp=2 / keyint=48 / keyint_min=25 / scenecut=0 / intra_refresh=0 / rc_lookahead=48 / rc=crf / mbtree=1 / crf=15.0 / qcomp=0.60 / qpmin=0 / qpmax=69 / qpstep=4 / vbv_maxrate=8000 / vbv_bufsize=12000 / crf_max=0.0 / nal_hrd=none / filler=0 / ip_ratio=1.40 / aq=1:0.60 Default : Yes Forced : No Audio ID : 2 Format : AAC LC Format/Info : Advanced Audio Codec Low Complexity Codec ID : A_AAC-2 Duration : 23 min 32 s Bit rate : 128 kb/s Channel(s) : 2 channels Channel layout : L R Sampling rate : 44.1 kHz Frame rate : 43.066 FPS (1024 SPF) Compression mode : Lossy Delay relative to video : -83 ms Stream size : 21.5 MiB (2%) Default : Yes Forced : No Text #1 ID : 3 Format : ASS Codec ID : S_TEXT/ASS Codec ID/Info : Advanced Sub Station Alpha Duration : 23 min 28 s Bit rate : 144 b/s Count of elements : 381 Compression mode : Lossless Stream size : 24.8 KiB (0%) Language : German Default : Yes Forced : No Text #2 ID : 4 Format : ASS Codec ID : S_TEXT/ASS Codec ID/Info : Advanced Sub Station Alpha Duration : 23 min 28 s Bit rate : 144 b/s Count of elements : 387 Compression mode : Lossless Stream size : 24.8 KiB (0%) Language : English Default : No Forced : No ​

    Anmerkung:
    Ich habe das Timing verbessert und die Font gefixt.

    720p:[​IMG]1080p:[​IMG]

    Geschützter Bereich
    Registriere dich oder logge dich ein, um den Inhalt sehen zu können
     
    Zuletzt bearbeitet: 16. Nov. 2018 um 17:39 Uhr
    Vagabund, Loki92, riversen und 13 anderen gefällt das.
  2. Ta@

    Ta@ Treues Mitglied Seelenverkäufer

    Registriert seit:
    7. Juli 2016
    Beiträge:
    399
    Zustimmungen:
    10.378
    ~Folge 7 online~